Filmwünsche können bei uns im Forum abgegeben werden

Wir Speichern Nicht




 
 
 
Top Releases
Die.Tribute.von.Panem.Catchi...
The.Accountant.2016.German.D...
X.Men.Zukunft.ist.Vergangenh...
Promised.Land.2012.German.DL...
Oblivion.2013.German.DL.1080...
Monster.Hunt.2015.German.DL....
The.Expendables.3.2014.THEAT...
Ares-Der.letzte.seiner.Art.2...
Ares-Der.letzte.seiner.Art.2...
Thank.You.for.Bombing.2015.G...

Cinedubs
Dunkirk.2017.IMAX.German.AC3...
Dunkirk.2017.IMAX.German.AC3...
Dunkirk.2017.IMAX.German.AC3...
Schneemann.German.DL.AC3.Dub...
ES.2017.German.DL.AC3.Dubbed...
Dunkirk.2017.German.AC3MD.DL...
The.Lego.Ninjago.Movie.2017....
The.Lego.Ninjago.Movie.2017....
Mother.German.DL.AC3.Dubbed....
Mother.German.DL.AC3.Dubbed....

Neuerscheinungen 2016-17
Leatherface.2017.German.720p...
Leatherface.2017.German.DL.1...
Deep.Purple.From.Here.to.inF...
DJ.Bobo.Mystorial.Live.2017....
Maneater.Der.Tod.aus.der.Kae...
Rendel.2017.German.AC3.DL.10...
Geliebte.Schwester.2017.Germ...
Mein.Freund.der.Dino.2017.Ge...
Rico.Oskar.und.der.Diebstahl...
Haunting.at.Foster.Cabin.201...

XXX
PlayboyPlus.17.11.26.Mashup....
QuebecProductions.15.12.04.A...
PlumperPass.17.11.29.Shanice...
PornMegaLoad.17.11.28.Kora.K...
OfficeObsession.17.11.29.Sof...
PornMegaLoad.17.11.26.Tigerr...
PremiumBukkake.17.11.20.Luna...
PremiumBukkake.17.11.22.Luna...
PremiumBukkake.17.11.17.Luna...
Petite.17.11.25.Liv.Revamped...
NuruMassage.17.12.01.Raven.H...
PlumperPass.17.12.01.Kat.Bai...
PixAndVideo.17.12.01.Kiara.N...
PornMegaLoad.17.11.27.Kandi....
PlayboyPlus.17.12.03.Mashup....
PremiumBukkake.17.10.04.Tina...
QuebecProductions.15.11.27.A...
PornFidelity.E718.Anna.Bell....
Nubiles.17.12.03.Roxy.Romero...
OldYoungLesbianLove.17.11.27...

3D
Walhalla.Rising.3D.2009.Germ...
Spider.Man.Homecoming.3D.Ger...
Valerian.Die.Stadt.der.tause...
Valerian.Die.Stadt.der.tause...
Valerian.Die.Stadt.der.tause...
Valerian.Die.Stadt.der.tause...
Warcraft.The.Beginning.3D.HS...
Transformers.The.Last.Knight...
Warcraft.The.Beginning.3D.HO...
Die.Schneekoenigin.3.Feuer.u...
Die.Schneekoenigin.3.Feuer.u...
Terra.X.Dracula.-.Die.wahre....
Abenteuer.Safari.3D.Safari.P...
Die.Schneekoenigin.3.3D.2016...
Spider.Man.Homecoming.3D.201...

Old_Stuff
Hana-bi.Feuerblume.1997.Germ...
Memphis.Belle.1990.German.DL...
Im.Schatten.des.Mondes.Germa...
Tomb.Raider.2001.DUAL.COMPLE...
Tomb.Raider.Die.Wiege.des.Le...
Party.Animals.3.German.AC3.7...
The.Rocky.Horror.Picture.Sho...
Die.Fliege.1986.German.DTS.1...
Mimic.2.2001.German.DD5.1D.D...
The.Tournament.UNCUT.2009.Ge...
Dr.House.S08.German.720p.Blu...
Dr.House.S07.German.720p.Blu...
Dr.House.S06.German.720p.Blu...
Dr.House.S05.German.720p.Blu...
Dr.House.S04.German.720p.Blu...

Musik
Remote.Galaxy.by.Flint.Juven...
Trondheim.Solistene.Souvenir...
The.Beatles.Sgt.Peppers.Lone...
The.Prometheus.Dolby.Atmos.E...
R.E.M.OUT.OF.TIME.25th.Anniv...
The.Rolling.Stones.GRRR.BR-A...
Mussorgsky.Bilder.einer.Auss...
Yes.-.The.Yes.Album.Bluray-A...
Carlos.Heredia.Gypsy.Flamenc...
SPES.2014.complete.Bluray.un...
Carlos.Santana.Collection.19...
Pink.Floyd.The.Endless.River...
The.Hyperion.Romantic.Piano....
Putumayo.113.CD.Flac.lossles...
UFO.Let.It.Roll.Limited.Edit...

Filme
Mimzy.Meine.Freundin.aus.der...
Supernatural.S11.COMPLETE.Ge...
No.Problem.2010.German.1080p...
Land.of.the.Dead.2K.Remaster...
Ray.Donovan.S05.GERMAN.DUBBE...
Ray.Donovan.S05.GERMAN.DUBBE...
No.Saints.For.Sinners.2011.G...
Supernatural.S12.GERMAN.DUBB...
Supernatural.S12.GERMAN.DUBB...
North.and.South.Die.Schlacht...
North.and.South.Die.Schlacht...
A.Single.Man.German.2009.DL....
A.Touch.of.Sin.2013.German.A...
Express.in.die.Hoelle.1985.G...
Family.For.Christmas.2015.Ge...
A.Star.Is.Born.1976.German.D...
A.Christmas.Carol.Die.drei.W...
A.Single.Shot.2013.German.DL...
Hubert.und.Staller.S06D01-4....
The.Keeper.2009.iNTERNAL.MUL...
To.Wong.Foo.Thanks.for.Every...
Express.in.die.Hoelle.1985.G...
Express.in.die.Hoelle.1985.G...
The.Walking.Dead.S08.GERMAN....

 
 
Captain.Underpants.Der.supertolle.erste.Film.2017.German.DTS.DL.1080p.BluRay.x264-LeetHD
Jahr: 2017
Genre: Animation, Komödie, Abenteuer
Sprache: Deutsch DTS | Englisch DTS
Laufzeit: 1h 28mn
Bitrate: 8 795 Kbps
Format: MKV
Größe: 5.45 GiB
Release:

Beschreibung:
George (Stimme im Original: Kevin Hart) und sein Schulkumpel Harold (Thomas Middleditch) sind zwei fantasiebegabte Viertklässler. Gemeinsam entwerfen sie den gedanklich etwas langsamen Superhelden Captain Underpants. Doch mit der fiktiven Existenz ihrer Kreation geben sich Harold und George bald nicht mehr zufrieden – sie wollen ihren begriffsstutzigen Weltenretter auch in der Realität auftreten lassen. Da kommt der arrogante Schuldirektor Mr. Krupp (Ed Helms) gerade recht. Kurzerhand wird der ungeliebte Lehrer hypnotisiert und zu Captain Underpants transformiert. Gemeinsam stürzen sich die drei in ein aufregendes Abenteuer. Sie werden mit dem verrückten Wissenschaftler Professor Poopypants (Nick Kroll), der Petze Melvin (Jordan Peele) und der Turbo-Toilette 2000  konfrontiert...


General
Unique ID                                : 181091437404326312834003182833840113631 (0x883CF133D11AE84F991A97AA4D3347DF)
Complete name                            : lhd-underpants-1080p.mkv
Format                                   : Matroska
Format version                           : Version 2
File size                                : 5.45 GiB
Duration                                 : 1h 28mn
Overall bit rate                         : 8 795 Kbps
Encoded date                             : UTC 2017-10-11 19:43:53
Writing application                      : mkvmerge v15.0.0 ('Duel with the Devil') 64-bit
Writing library                          : libebml v1.3.5 + libmatroska v1.4.5
DURATION                                 : 01:27:33.665000000
NUMBER_OF_FRAMES                         : 2812
NUMBER_OF_BYTES                          : 28428536
_STATISTICS_WRITING_APP                  : mkvmerge v15.0.0 ('Duel with the Devil') 64-bit
_STATISTICS_WRITING_DATE_UTC             : 2017-10-11 19:43:53
_STATISTICS_TAGS                         : BPS DURATION NUMBER_OF_FRAMES NUMBER_OF_BYTES

Video
ID                                       : 1
Format                                   : AVC
Format/Info                              : Advanced Video Codec
Format profile                           : High@L4.1
Format settings, CABAC                   : Yes
Format settings, ReFrames                : 4 frames
Codec ID                                 : V_MPEG4/ISO/AVC
Duration                                 : 1h 28mn
Bit rate                                 : 6 343 Kbps
Width                                    : 1 920 pixels
Height                                   : 1 036 pixels
Display aspect ratio                     : 1.85:1
Frame rate mode                          : Constant
Frame rate                               : 23.976 fps
Color space                              : YUV
Chroma subsampling                       : 4:2:0
Bit depth                                : 8 bits
Scan type                                : Progressive
Bits/(Pixel*Frame)                       : 0.133
Stream size                              : 3.93 GiB (72%)
Writing library                          : x264 core 152 r2851 ba24899
Encoding settings                        : cabac=1 / ref=4 / deblock=1:-1:-1 / analyse=0x3:0x113 / me=umh / subme=8 / psy=1 / psy_rd=0.99:0.01 / mixed_ref=1 / me_range=16 / chroma_me=1 / trellis=1 / 8x8dct=1 / cqm=0 / deadzone=21,11 / fast_pskip=0 / chroma_qp_offset=-3 / threads=12 / lookahead_threads=2 / sliced_threads=0 / nr=0 / decimate=1 / interlaced=0 / bluray_compat=0 / constrained_intra=0 / bframes=3 / b_pyramid=2 / b_adapt=2 / b_bias=0 / direct=3 / weightb=1 / open_gop=0 / weightp=2 / keyint=240 / keyint_min=23 / scenecut=40 / intra_refresh=0 / rc_lookahead=40 / rc=crf / mbtree=1 / crf=18.5 / qcomp=0.60 / qpmin=0 / qpmax=69 / qpstep=4 / vbv_maxrate=62500 / vbv_bufsize=78125 / crf_max=0.0 / nal_hrd=none / filler=0 / ip_ratio=1.40 / aq=1:1.00
Default                                  : Yes
Forced                                   : No

Audio #1
ID                                       : 2
Format                                   : DTS
Format/Info                              : Digital Theater Systems
Mode                                     : 16
Format settings, Endianness              : Big
Codec ID                                 : A_DTS
Duration                                 : 1h 28mn
Bit rate mode                            : Constant
Bit rate                                 : 768 Kbps
Channel(s)                               : 6 channels
Channel positions                        : Front: L C R, Side: L R, LFE
Sampling rate                            : 48.0 KHz
Bit depth                                : 24 bits
Compression mode                         : Lossy
Stream size                              : 487 MiB (9%)
Language                                 : German
Default                                  : Yes
Forced                                   : No

Audio #2
ID                                       : 3
Format                                   : DTS
Format/Info                              : Digital Theater Systems
Format profile                           : ES
Mode                                     : 16
Format settings, Endianness              : Big
Codec ID                                 : A_DTS
Duration                                 : 1h 28mn
Bit rate mode                            : Constant
Bit rate                                 : 1 509 Kbps
Channel(s)                               : 6 channels
Channel positions                        : Front: L C R, Side: L R, LFE
Sampling rate                            : 48.0 KHz
Bit depth                                : 24 bits
Compression mode                         : Lossy
Stream size                              : 957 MiB (17%)
Language                                 : English
Default                                  : No
Forced                                   : No

Text #1
ID                                       : 4
Format                                   : VobSub
Muxing mode                              : zlib
Codec ID                                 : S_VOBSUB
Codec ID/Info                            : The same subtitle format used on DVDs
Title                                    : forced
Language                                 : German
Default                                  : Yes
Forced                                   : Yes

Text #2
ID                                       : 5
Format                                   : PGS
Muxing mode                              : zlib
Codec ID                                 : S_HDMV/PGS
Codec ID/Info                            : The same subtitle format used on BDs/HD-DVDs
Title                                    : complete
Language                                 : German
Default                                  : No
Forced                                   : No


Download:
Share Online Share OnlineShare OnlineShare Online
 

Kommentare