Filmwünsche können bei uns im Forum abgegeben werden

Wir Speichern Nicht




 
 
 
Top Releases
Der.Stern.von.Indien.2017.Ge...
Der.Stern.von.Indien.2017.Ge...
Dunkirk.2017.German.DL.1080p...
Dunkirk.2017.IMAX.German.DTS...
Dunkirk.2017.German.720p.Blu...
Dalida.2016.GERMAN.720p.BluR...
Dalida.2016.GERMAN.1080p.Blu...
Dalida.2016.DUAL.COMPLETE.BL...
Mein.fast.perfekter.Vater.Th...
Die.Tribute.von.Panem.Catchi...

Cinedubs
Flatliners.2017.German.AC3MD...
Flatliners.2017.German.AC3MD...
Dunkirk.2017.IMAX.German.AC3...
Dunkirk.2017.IMAX.German.AC3...
Dunkirk.2017.IMAX.German.AC3...
Schneemann.German.DL.AC3.Dub...
ES.2017.German.DL.AC3.Dubbed...
Dunkirk.2017.German.AC3MD.DL...
The.Lego.Ninjago.Movie.2017....
The.Lego.Ninjago.Movie.2017....

Neuerscheinungen 2016-17
The.Kelly.Family.We.Got.Love...
Escape.Room.2017.German.DL.1...
The.Holly.Kane.Experiment.20...
Iron.Man.2.4k.2010.multi.com...
Escape.Room.2017.German.DL.1...
Escape.Room.2017.German.720p...
Max.Agent.auf.vier.Pfoten.20...
Max.Agent.auf.vier.Pfoten.20...
Max.Agent.auf.vier.Pfoten.20...
Leatherface.2017.German.720p...

XXX
Twistys.17.11.18.Ryan.Ryans....
UltraFilms.17.11.09.Eveline....
ShemalesFromHell.17.09.08.Er...
SisLovesMe.17.11.28.Sadie.Bl...
RealAgent.17.11.01.Emily.Arc...
SexArt.17.11.26.Myiuki.Son.S...
UltraFilms.17.11.25.Tee.Nka....
Sexflexvideo.17.11.30.Redhea...
VintageFlash.17.11.24.Sophia...
ScrewBox.17.11.26.Jennifer.J...
ShemalesFromHell.17.08.27.Ad...
ShemalesFromHell.17.09.01.Je...
Sexflexvideo.17.12.02.Sophia...
RylskyArt.17.12.01.Astrud.Vi...
X-Art.17.12.01.Nicole.Black....
Twistys.17.11.11.Blair.Summe...
Sexflexvideo.17.12.02.Victor...
SeducedByACougar.17.11.27.Sy...
Sinslife.17.11.23.Throwback....
SelfieSuck.17.11.02.Daniela....

3D
Walhalla.Rising.3D.2009.Germ...
Spider.Man.Homecoming.3D.Ger...
Valerian.Die.Stadt.der.tause...
Valerian.Die.Stadt.der.tause...
Valerian.Die.Stadt.der.tause...
Valerian.Die.Stadt.der.tause...
Warcraft.The.Beginning.3D.HS...
Transformers.The.Last.Knight...
Warcraft.The.Beginning.3D.HO...
Die.Schneekoenigin.3.Feuer.u...
Die.Schneekoenigin.3.Feuer.u...
Terra.X.Dracula.-.Die.wahre....
Abenteuer.Safari.3D.Safari.P...
Die.Schneekoenigin.3.3D.2016...
Spider.Man.Homecoming.3D.201...

Old_Stuff
American.Sniper.2014.MULTi.C...
Hana-bi.Feuerblume.1997.Germ...
Memphis.Belle.1990.German.DL...
Im.Schatten.des.Mondes.Germa...
Tomb.Raider.2001.DUAL.COMPLE...
Tomb.Raider.Die.Wiege.des.Le...
Party.Animals.3.German.AC3.7...
The.Rocky.Horror.Picture.Sho...
Die.Fliege.1986.German.DTS.1...
Mimic.2.2001.German.DD5.1D.D...
The.Tournament.UNCUT.2009.Ge...
Dr.House.S08.German.720p.Blu...
Dr.House.S07.German.720p.Blu...
Dr.House.S06.German.720p.Blu...
Dr.House.S05.German.720p.Blu...

Musik
Remote.Galaxy.by.Flint.Juven...
Trondheim.Solistene.Souvenir...
The.Beatles.Sgt.Peppers.Lone...
The.Prometheus.Dolby.Atmos.E...
R.E.M.OUT.OF.TIME.25th.Anniv...
The.Rolling.Stones.GRRR.BR-A...
Mussorgsky.Bilder.einer.Auss...
Yes.-.The.Yes.Album.Bluray-A...
Carlos.Heredia.Gypsy.Flamenc...
SPES.2014.complete.Bluray.un...
Carlos.Santana.Collection.19...
Pink.Floyd.The.Endless.River...
The.Hyperion.Romantic.Piano....
Putumayo.113.CD.Flac.lossles...
UFO.Let.It.Roll.Limited.Edit...

Filme
Dolans.Cadillac.2009.German....
Dolans.Cadillac.2009.German....
The.Da.Vinci.Code.Sakrileg.4...
Miss.Marple.Moerder.Ahoi.-.M...
Mimesis.Night.of.the.Living....
Jagdszenen.aus.Niederbayern....
Game.of.thrones.s07d01-3.201...
Das.verrueckte.Familienfest....
Jumanji.1995.German.DL.1080p...
Doctor.Who.S10.German.DD51.S...
Doctor.Who.S10.German.DD51.S...
Manhunt.Unabomber.S01.COMPLE...
Manhunt.Unabomber.S01.COMPLE...
NCIS.S15.GERMAN.DUBBED.DL.72...
The.Librarians.S03.COMPLETE....
Starship.Troopers.1997.Germa...
Colors.Farben.der.Gewalt.UNR...
Das.Privatleben.des.Sherlock...
Twin.Dragons.1992.German.AC3...
Strike.One.2014.German.AC3.D...
The.Good.Fight.S01.GERMAN.DU...
187.Eine.toedliche.Zahl.1997...
Gib.dem.Affen.Zucker.1981.RE...
Gib.dem.Affen.Zucker.1981.RE...

 
 
Captain.Underpants.Der.supertolle.erste.Film.2017.German.DTS.DL.720p.BluRay.x264-MULTiPLEX
Jahr: 2017
Genre: Animation, Komödie, Abenteuer
Sprache: Deutsch DTS | Englisch DTS
Laufzeit: 1h 28mn
Bitrate: 5 815 Kbps
Format: MKV
Größe: 3.60 GiB
Release:

Beschreibung:
George (Stimme im Original: Kevin Hart) und sein Schulkumpel Harold (Thomas Middleditch) sind zwei fantasiebegabte Viertklässler. Gemeinsam entwerfen sie den gedanklich etwas langsamen Superhelden Captain Underpants. Doch mit der fiktiven Existenz ihrer Kreation geben sich Harold und George bald nicht mehr zufrieden – sie wollen ihren begriffsstutzigen Weltenretter auch in der Realität auftreten lassen. Da kommt der arrogante Schuldirektor Mr. Krupp (Ed Helms) gerade recht. Kurzerhand wird der ungeliebte Lehrer hypnotisiert und zu Captain Underpants transformiert. Gemeinsam stürzen sich die drei in ein aufregendes Abenteuer. Sie werden mit dem verrückten Wissenschaftler Professor Poopypants (Nick Kroll), der Petze Melvin (Jordan Peele) und der Turbo-Toilette 2000  konfrontiert...


General
Unique ID                                : 193903403334007820695599562712321790314 (0x91E06FE478D560B98C2F2FB3987E916A)
Complete name                            : mp-captainunderpants-720p.mkv
Format                                   : Matroska
Format version                           : Version 4 / Version 2
File size                                : 3.60 GiB
Duration                                 : 1h 28mn
Overall bit rate                         : 5 815 Kbps
Encoded date                             : UTC 2017-10-11 21:05:45
Writing application                      : mkvmerge v8.3.0 ('Over the Horizon') 64bit
Writing library                          : libebml v1.3.1 + libmatroska v1.4.2
DURATION                                 : 01:20:51.722000000
NUMBER_OF_FRAMES                         : 1456
NUMBER_OF_BYTES                          : 46367
_STATISTICS_WRITING_APP                  : mkvmerge v8.3.0 ('Over the Horizon') 64bit
_STATISTICS_WRITING_DATE_UTC             : 2017-10-11 21:05:45
_STATISTICS_TAGS                         : BPS DURATION NUMBER_OF_FRAMES NUMBER_OF_BYTES

Video
ID                                       : 1
Format                                   : AVC
Format/Info                              : Advanced Video Codec
Format profile                           : High@L4.1
Format settings, CABAC                   : Yes
Format settings, ReFrames                : 5 frames
Codec ID                                 : V_MPEG4/ISO/AVC
Duration                                 : 1h 28mn
Bit rate                                 : 3 422 Kbps
Width                                    : 1 280 pixels
Height                                   : 688 pixels
Display aspect ratio                     : 1.85:1
Frame rate mode                          : Constant
Frame rate                               : 23.976 fps
Color space                              : YUV
Chroma subsampling                       : 4:2:0
Bit depth                                : 8 bits
Scan type                                : Progressive
Bits/(Pixel*Frame)                       : 0.162
Stream size                              : 2.12 GiB (59%)
Writing library                          : x264 core 152 r2851 ba24899
Encoding settings                        : cabac=1 / ref=5 / deblock=1:-3:-3 / analyse=0x3:0x113 / me=umh / subme=11 / psy=1 / psy_rd=1.00:0.15 / mixed_ref=1 / me_range=16 / chroma_me=1 / trellis=2 / 8x8dct=1 / cqm=0 / deadzone=21,11 / fast_pskip=0 / chroma_qp_offset=-3 / threads=80 / lookahead_threads=5 / sliced_threads=0 / nr=0 / decimate=1 / interlaced=0 / bluray_compat=0 / constrained_intra=0 / bframes=5 / b_pyramid=2 / b_adapt=2 / b_bias=0 / direct=3 / weightb=1 / open_gop=0 / weightp=2 / keyint=250 / keyint_min=23 / scenecut=40 / intra_refresh=0 / rc_lookahead=40 / rc=crf / mbtree=1 / crf=17.0 / qcomp=0.60 / qpmin=10 / qpmax=69 / qpstep=4 / ip_ratio=1.40 / aq=1:1.00
Language                                 : English
Default                                  : Yes
Forced                                   : No
DURATION                                 : 01:28:40.315000000
NUMBER_OF_FRAMES                         : 127560
NUMBER_OF_BYTES                          : 2350376875
_STATISTICS_WRITING_APP                  : mkvmerge v8.3.0 ('Over the Horizon') 64bit
_STATISTICS_WRITING_DATE_UTC             : 2017-10-11 21:05:45
_STATISTICS_TAGS                         : BPS DURATION NUMBER_OF_FRAMES NUMBER_OF_BYTES

Audio #1
ID                                       : 2
Format                                   : DTS
Format/Info                              : Digital Theater Systems
Mode                                     : 16
Format settings, Endianness              : Big
Codec ID                                 : A_DTS
Duration                                 : 1h 28mn
Bit rate mode                            : Constant
Bit rate                                 : 768 Kbps
Channel(s)                               : 6 channels
Channel positions                        : Front: L C R, Side: L R, LFE
Sampling rate                            : 48.0 KHz
Bit depth                                : 24 bits
Compression mode                         : Lossy
Stream size                              : 487 MiB (13%)
Language                                 : German
Default                                  : Yes
Forced                                   : Yes

Audio #2
ID                                       : 3
Format                                   : DTS
Format/Info                              : Digital Theater Systems
Format profile                           : ES
Mode                                     : 16
Format settings, Endianness              : Big
Codec ID                                 : A_DTS
Duration                                 : 1h 28mn
Bit rate mode                            : Constant
Bit rate                                 : 1 509 Kbps
Channel(s)                               : 6 channels
Channel positions                        : Front: L C R, Side: L R, LFE
Sampling rate                            : 48.0 KHz
Bit depth                                : 24 bits
Compression mode                         : Lossy
Stream size                              : 957 MiB (26%)
Language                                 : English
Default                                  : No
Forced                                   : No

Text #1
ID                                       : 4
Format                                   : UTF-8
Codec ID                                 : S_TEXT/UTF8
Codec ID/Info                            : UTF-8 Plain Text
Title                                    : ger forced
Language                                 : German
Default                                  : Yes
Forced                                   : Yes

Text #2
ID                                       : 5
Format                                   : UTF-8
Codec ID                                 : S_TEXT/UTF8
Codec ID/Info                            : UTF-8 Plain Text
Title                                    : ger regular
Language                                 : German
Default                                  : No
Forced                                   : No

Text #3
ID                                       : 6
Format                                   : UTF-8
Codec ID                                 : S_TEXT/UTF8
Codec ID/Info                            : UTF-8 Plain Text
Title                                    : eng regular
Language                                 : English
Default                                  : No
Forced                                   : No


Download:
Share Online Share OnlineShare OnlineShare Online
 

Kommentare