SUPPORT HD-AREA

Filmwünsche können bei uns im Forum abgegeben werden

Wir Speichern Nicht




 
 
 
Top Releases
Gluecklich.geschieden.Mama.g...
28.Soldiers.Die.Panzerschlac...
Born.to.Be.Blue.2015.German....
Gluecklich.geschieden.Mama.g...
The.Autopsy.of.Jane.Doe.2016...
The.Autopsy.of.Jane.Doe.2016...
Star.Trek.Beyond.2016.German...
Gluecklich.Geschieden.Mama.G...
Ueberflieger.2017.DUAL.COMPL...
Dark.Web.Kontrolle.ist.eine....

Cinedubs
Casino.Undercover.2017.Germa...
Casino.Undercover.2017.Germa...
What.Happened.to.Monday.2017...
What.Happened.to.Monday.2017...
Planet.der.Affen.Survival.20...
Planet.der.Affen.Survival.20...
Cars.3.2017.GERMAN.DL.MD.108...
Cars.3.2017.GERMAN.DL.MD.720...
Atomic.Blonde.German.AC3.Dub...
Atomic.Blonde.German.AC3.Dub...

Neuerscheinungen 2016-17
Northpole.Weihnachten.geoeff...
Northpole.Weihnachten.geoeff...
Pettersson.Und.Findus.2.Das....
The.Dinner.2017.German.720p....
Resident.Evil.The.Final.Chap...
Maschinenland.Mankind.Down.R...
Dunkirk.Die.Schlacht.von.Due...
Maschinenland.Mankind.Down.2...
Maschinenland.Mankind.Down.2...
Maschinenland.Mankind.Down.2...

XXX
AllOver30.17.10.12.Melanie.H...
ArchAngel.17.10.13.Kendra.Lu...
Anal-Beauty.17.10.16.Vany.Ul...
ArchAngel.17.10.11.Cherie.De...
BackroomCastingCouch.17.10.1...
Bang.Casting.17.10.11.Keisha...
AbbyWinters.17.10.14.Juliana...
BigWetButts.17.10.15.Dee.Wil...
BrazzersExxtra.17.10.12.Keis...
Anilos.17.10.14.Leilani.Lei....
Bang.Confessions.17.10.13.Gi...
AussiePOV.15.01.08.Madison.M...
Beauty-Angels.17.10.14.Jenny...
AussiePOV.17.02.16.Dianne.De...
BabyGotBoobs.17.10.16.Vivian...
Bang.RealTeens.17.10.16.Maya...
ATKGirlfriends.17.10.11.Kris...
ATKGirlfriends.17.10.13.Nina...
AussiePOV.17.04.20.Kim.Cums....
Baeb.17.10.14.Haley.Reed.Sun...

3D
Patagonia.3D.Auf.den.Spuren....
Pirates.of.the.Caribbean.Sal...
Transformers.The.Last.Knight...
Faszination.Island.Das.Parad...
The.Final.Destination.4.3D.2...
The.Warriors.Gate.3D.2016.DU...
Wonder.Woman.3D.2017.MULTI.C...
Tutanchamun.3D.2012.COMPLETE...
Wonder.Woman.3D.HSBS.2017.Ge...
Wonder.Woman.3D.HOU.2017.Ger...
Pirates.of.the.Caribbean.Sal...
Pirates.of.the.Caribbean.Sal...
Die.Mumie.3D.2017.MULTi.COMP...
Wickie.auf.grosser.Fahrt.3D....
Die.Mumie.3D.HSBS.2017.Germa...

Old_Stuff
Chicago.Fire.S04.German.DL.1...
Chicago.Fire.S04.German.DL.7...
Conan.The.Barbarian.2011.Ger...
Conan.The.Barbarian.2011.Ger...
Die.Olsenbande.sieht.rot.197...
Olsenbande.steigt.aufs.Dach....
Malcolm.mittendrin.S05.Germa...
Malcolm.mittendrin.S04.Germa...
Life.of.Pi.2012.German.DTS.D...
Rest.Stop.Dont.Look.Back.UNC...
Koenig.der.Loewen.3D.German....
Schuesse.im.Dreiviertel.Takt...
Airwolf.S02.DUAL.BLURAY.COMP...
Don.2.The.King.is.Back.2011....
Prison.Break.S04.Complete.Ge...

Musik
The.Beatles.Sgt.Peppers.Lone...
The.Prometheus.Dolby.Atmos.E...
R.E.M.OUT.OF.TIME.25th.Anniv...
The.Rolling.Stones.GRRR.BR-A...
Mussorgsky.Bilder.einer.Auss...
Yes.-.The.Yes.Album.Bluray-A...
Carlos.Heredia.Gypsy.Flamenc...
SPES.2014.complete.Bluray.un...
Carlos.Santana.Collection.19...
Pink.Floyd.The.Endless.River...
The.Hyperion.Romantic.Piano....
Putumayo.113.CD.Flac.lossles...

Filme
Rumble.in.the.Bronx.1995.Ger...
Premutos.1997.German.DTS-HD....
Eine.Nacht.bei.McCools.Uncut...
Broken.Horses.2015.German.DL...
Baby.Mama.2008.German.1080p....
Die.Nacht.der.Jaeger.2011.Ge...
Die.Nacht.der.Woelfe.2011.Ge...
Jenseits.der.weissen.Linie.1...
American.Psycho.2000.German....
A.Nannys.Secret.2009.German....
Stephen.Kings.A.Good.Marriag...
In.the.Club.Stand.Up.Strip.D...
Die.Mannschaft.2014.German.1...
Die.Maske.runter.1952.German...
Die.Mamba.Gefaehrlich.lustig...
Fear.The.Walking.Dead.S03.CO...
Der.Schakal.1997.DUAL.COMPLE...
Outlander.S03.German.DD51.DL...
Outlander.S03.German.DD51.DL...
Die.Simpsons.S28.GERMAN.DUBB...
Die.Simpsons.S28.GERMAN.DUBB...
Bones.Die.Knochenjaegerin.S1...
Sleepy.Hollow.S04.GERMAN.DUB...
Colony.S01.GERMAN.DUBBED.720...

 
 
Planet.der.Affen.Survival.2017.German.AC3LD.DL.720p.BluRay.x264-PS
Jahr: 2017
Genre: Action, Drama, Abenteuer
Sprache: Deutsch AC3 | Englisch DTS
Laufzeit: 2h 20mn
Bitrate: 6 914 Kbps
Format: MKV
Größe: 6.77 GiB
Release:

Beschreibung:

Der Krieg, den Koba (Toby Kebbell) mit den von der Seuche stark dezimierten Menschen angezettelt hat, ist in vollem Gange. Affen-Anführer Caesar (Andy Serkis) geht es dabei gar nicht länger ums Gewinnen, er will lediglich einen Weg finden, wie er mit seinem Stamm in Frieden leben kann. Doch eine Spezialeinheit unter Führung des brutalen Colonel (Woody Harrelson) will Caesar um jeden Preis tot sehen und so werden im Urwald vor den Toren San Franciscos weiterhin blutige Gefechte ausgetragen, die in einem heimtückischen Anschlag auf das geheime Versteck der Affen gipfeln, das ein Verräter preisgegeben hat. Nun gärt in dem sonst friedliebenden Caesar das Bedürfnis nach Rache und mit seiner rechten Hand Rocket (Terry Notary) und einigen weiteren Getreuen macht er sich auf die beschwerliche Suche nach dem Colonel, fest entschlossen, keine Gnade mehr walten zu lassen.



Unique ID                                : 240574649057903070817632856631815760882 (0xB4FCFDF6DD5DECA2AAD4C13FD204EBF2)
Complete name                            : ps-p3survival.72.mkv
Format                                   : Matroska
Format version                           : Version 4 / Version 2
File size                                : 6.77 GiB
Duration                                 : 2h 20mn
Overall bit rate                         : 6 914 Kbps
Encoded date                             : UTC 2017-10-12 01:47:09
Writing application                      : mkvmerge v8.3.0 ('Over the Horizon') 64bit
Writing library                          : libebml v1.3.1 + libmatroska v1.4.2
DURATION                                 : 01:50:45.874000000
NUMBER_OF_FRAMES                         : 199
NUMBER_OF_BYTES                          : 6092
_STATISTICS_WRITING_APP                  : mkvmerge v8.3.0 ('Over the Horizon') 64bit
_STATISTICS_WRITING_DATE_UTC             : 2017-10-12 01:47:09
_STATISTICS_TAGS                         : BPS DURATION NUMBER_OF_FRAMES NUMBER_OF_BYTES

Video
ID                                       : 1
Format                                   : AVC
Format/Info                              : Advanced Video Codec
Format profile                           : High@L4.1
Format settings, CABAC                   : Yes
Format settings, ReFrames                : 5 frames
Codec ID                                 : V_MPEG4/ISO/AVC
Duration                                 : 2h 20mn
Bit rate                                 : 5 178 Kbps
Width                                    : 1 280 pixels
Height                                   : 536 pixels
Display aspect ratio                     : 2.40:1
Frame rate mode                          : Constant
Frame rate                               : 23.976 fps
Color space                              : YUV
Chroma subsampling                       : 4:2:0
Bit depth                                : 8 bits
Scan type                                : Progressive
Bits/(Pixel*Frame)                       : 0.315
Stream size                              : 4.94 GiB (73%)
Writing library                          : x264 core 152 r2851 ba24899
Encoding settings                        : cabac=1 / ref=5 / deblock=1:0:0 / analyse=0x3:0x113 / me=umh / subme=8 / psy=1 / psy_rd=1.00:0.00 / mixed_ref=1 / me_range=16 / chroma_me=1 / trellis=1 / 8x8dct=1 / cqm=0 / deadzone=21,11 / fast_pskip=1 / chroma_qp_offset=-2 / threads=24 / lookahead_threads=4 / sliced_threads=0 / nr=0 / decimate=1 / interlaced=0 / bluray_compat=0 / constrained_intra=0 / bframes=3 / b_pyramid=2 / b_adapt=1 / b_bias=0 / direct=3 / weightb=1 / open_gop=0 / weightp=2 / keyint=240 / keyint_min=24 / scenecut=40 / intra_refresh=0 / rc_lookahead=50 / rc=2pass / mbtree=1 / bitrate=5178 / ratetol=1.0 / qcomp=0.60 / qpmin=0 / qpmax=69 / qpstep=4 / cplxblur=20.0 / qblur=0.5 / ip_ratio=1.40 / aq=1:1.00
Language                                 : English
Default                                  : Yes
Forced                                   : No
DURATION                                 : 02:20:09.276000000
NUMBER_OF_FRAMES                         : 201621
NUMBER_OF_BYTES                          : 5444515303
_STATISTICS_WRITING_APP                  : mkvmerge v8.3.0 ('Over the Horizon') 64bit
_STATISTICS_WRITING_DATE_UTC             : 2017-10-12 01:47:09
_STATISTICS_TAGS                         : BPS DURATION NUMBER_OF_FRAMES NUMBER_OF_BYTES

Audio #1
ID                                       : 2
Format                                   : AC-3
Format/Info                              : Audio Coding 3
Mode extension                           : CM (complete main)
Format settings, Endianness              : Big
Codec ID                                 : A_AC3
Duration                                 : 2h 20mn
Bit rate mode                            : Constant
Bit rate                                 : 224 Kbps
Channel(s)                               : 2 channels
Channel positions                        : Front: L R
Sampling rate                            : 48.0 KHz
Bit depth                                : 16 bits
Compression mode                         : Lossy
Stream size                              : 225 MiB (3%)
Language                                 : German
Default                                  : Yes
Forced                                   : Yes

Audio #2
ID                                       : 3
Format                                   : DTS
Format/Info                              : Digital Theater Systems
Format profile                           : ES
Mode                                     : 16
Format settings, Endianness              : Big
Codec ID                                 : A_DTS
Duration                                 : 2h 20mn
Bit rate mode                            : Constant
Bit rate                                 : 1 509 Kbps
Channel(s)                               : 6 channels
Channel positions                        : Front: L C R, Side: L R, LFE
Sampling rate                            : 48.0 KHz
Bit depth                                : 24 bits
Compression mode                         : Lossy
Stream size                              : 1.48 GiB (22%)
Language                                 : English
Default                                  : No
Forced                                   : No

Text #1
ID                                       : 4
Format                                   : UTF-8
Codec ID                                 : S_TEXT/UTF8
Codec ID/Info                            : UTF-8 Plain Text
Title                                    : German forced
Language                                 : German
Default                                  : Yes
Forced                                   : Yes

Text #2
ID                                       : 5
Format                                   : UTF-8
Codec ID                                 : S_TEXT/UTF8
Codec ID/Info                            : UTF-8 Plain Text
Title                                    : English forced
Language                                 : English
Default                                  : No
Forced                                   : No

Text #3
ID                                       : 6
Format                                   : UTF-8
Codec ID                                 : S_TEXT/UTF8
Codec ID/Info                            : UTF-8 Plain Text
Title                                    : English regular
Language                                 : English
Default                                  : No
Forced                                   : No

Text #4
ID                                       : 7
Format                                   : UTF-8
Codec ID                                 : S_TEXT/UTF8
Codec ID/Info                            : UTF-8 Plain Text
Title                                    : English sdh
Language                                 : English
Default                                  : No
Forced                                   : No


Download:
Share Online Share OnlineShare OnlineShare Online
 

Kommentare