SUPPORT HD-AREA

Filmwünsche können bei uns im Forum abgegeben werden

Wir Speichern Nicht




 
 
 
Top Releases
Gluecklich.geschieden.Mama.g...
28.Soldiers.Die.Panzerschlac...
Born.to.Be.Blue.2015.German....
Gluecklich.geschieden.Mama.g...
The.Autopsy.of.Jane.Doe.2016...
The.Autopsy.of.Jane.Doe.2016...
Star.Trek.Beyond.2016.German...
Gluecklich.Geschieden.Mama.G...
Ueberflieger.2017.DUAL.COMPL...
Dark.Web.Kontrolle.ist.eine....

Cinedubs
Casino.Undercover.2017.Germa...
Casino.Undercover.2017.Germa...
What.Happened.to.Monday.2017...
What.Happened.to.Monday.2017...
Planet.der.Affen.Survival.20...
Planet.der.Affen.Survival.20...
Cars.3.2017.GERMAN.DL.MD.108...
Cars.3.2017.GERMAN.DL.MD.720...
Atomic.Blonde.German.AC3.Dub...
Atomic.Blonde.German.AC3.Dub...

Neuerscheinungen 2016-17
Northpole.Weihnachten.geoeff...
Northpole.Weihnachten.geoeff...
Pettersson.Und.Findus.2.Das....
The.Dinner.2017.German.720p....
Resident.Evil.The.Final.Chap...
Maschinenland.Mankind.Down.R...
Dunkirk.Die.Schlacht.von.Due...
Maschinenland.Mankind.Down.2...
Maschinenland.Mankind.Down.2...
Maschinenland.Mankind.Down.2...

XXX
AllOver30.17.10.12.Melanie.H...
ArchAngel.17.10.13.Kendra.Lu...
Anal-Beauty.17.10.16.Vany.Ul...
ArchAngel.17.10.11.Cherie.De...
BackroomCastingCouch.17.10.1...
Bang.Casting.17.10.11.Keisha...
AbbyWinters.17.10.14.Juliana...
BigWetButts.17.10.15.Dee.Wil...
BrazzersExxtra.17.10.12.Keis...
Anilos.17.10.14.Leilani.Lei....
Bang.Confessions.17.10.13.Gi...
AussiePOV.15.01.08.Madison.M...
Beauty-Angels.17.10.14.Jenny...
AussiePOV.17.02.16.Dianne.De...
BabyGotBoobs.17.10.16.Vivian...
Bang.RealTeens.17.10.16.Maya...
ATKGirlfriends.17.10.11.Kris...
ATKGirlfriends.17.10.13.Nina...
AussiePOV.17.04.20.Kim.Cums....
Baeb.17.10.14.Haley.Reed.Sun...

3D
Patagonia.3D.Auf.den.Spuren....
Pirates.of.the.Caribbean.Sal...
Transformers.The.Last.Knight...
Faszination.Island.Das.Parad...
The.Final.Destination.4.3D.2...
The.Warriors.Gate.3D.2016.DU...
Wonder.Woman.3D.2017.MULTI.C...
Tutanchamun.3D.2012.COMPLETE...
Wonder.Woman.3D.HSBS.2017.Ge...
Wonder.Woman.3D.HOU.2017.Ger...
Pirates.of.the.Caribbean.Sal...
Pirates.of.the.Caribbean.Sal...
Die.Mumie.3D.2017.MULTi.COMP...
Wickie.auf.grosser.Fahrt.3D....
Die.Mumie.3D.HSBS.2017.Germa...

Old_Stuff
Chicago.Fire.S04.German.DL.1...
Chicago.Fire.S04.German.DL.7...
Conan.The.Barbarian.2011.Ger...
Conan.The.Barbarian.2011.Ger...
Die.Olsenbande.sieht.rot.197...
Olsenbande.steigt.aufs.Dach....
Malcolm.mittendrin.S05.Germa...
Malcolm.mittendrin.S04.Germa...
Life.of.Pi.2012.German.DTS.D...
Rest.Stop.Dont.Look.Back.UNC...
Koenig.der.Loewen.3D.German....
Schuesse.im.Dreiviertel.Takt...
Airwolf.S02.DUAL.BLURAY.COMP...
Don.2.The.King.is.Back.2011....
Prison.Break.S04.Complete.Ge...

Musik
The.Beatles.Sgt.Peppers.Lone...
The.Prometheus.Dolby.Atmos.E...
R.E.M.OUT.OF.TIME.25th.Anniv...
The.Rolling.Stones.GRRR.BR-A...
Mussorgsky.Bilder.einer.Auss...
Yes.-.The.Yes.Album.Bluray-A...
Carlos.Heredia.Gypsy.Flamenc...
SPES.2014.complete.Bluray.un...
Carlos.Santana.Collection.19...
Pink.Floyd.The.Endless.River...
The.Hyperion.Romantic.Piano....
Putumayo.113.CD.Flac.lossles...

Filme
Rumble.in.the.Bronx.1995.Ger...
Premutos.1997.German.DTS-HD....
Eine.Nacht.bei.McCools.Uncut...
Broken.Horses.2015.German.DL...
Baby.Mama.2008.German.1080p....
Die.Nacht.der.Jaeger.2011.Ge...
Die.Nacht.der.Woelfe.2011.Ge...
Jenseits.der.weissen.Linie.1...
American.Psycho.2000.German....
A.Nannys.Secret.2009.German....
Stephen.Kings.A.Good.Marriag...
In.the.Club.Stand.Up.Strip.D...
Die.Mannschaft.2014.German.1...
Die.Maske.runter.1952.German...
Die.Mamba.Gefaehrlich.lustig...
Fear.The.Walking.Dead.S03.CO...
Der.Schakal.1997.DUAL.COMPLE...
Outlander.S03.German.DD51.DL...
Outlander.S03.German.DD51.DL...
Die.Simpsons.S28.GERMAN.DUBB...
Die.Simpsons.S28.GERMAN.DUBB...
Bones.Die.Knochenjaegerin.S1...
Sleepy.Hollow.S04.GERMAN.DUB...
Colony.S01.GERMAN.DUBBED.720...

 
 
Starfighter.Sie.wollten.den.Himmel.erobern.2015.German.1080p.BluRay.x264-WOMBAT
Jahr: 2015
Genre: Action, Drama
Sprache: Deutsch DTS
Laufzeit: 2h 4mn
Bitrate: 8 164 Kbps
Format: MKV
Größe: 7.11 GiB
Release:

Beschreibung:

Deutschland in den „Swinging Sixties“: Die Bundeswehr rüstet sich mit dem hochmodernen Kampfjet „Starfighter“ aus. Die Piloten der Luftwaffe, unter ihnen der draufgängerische Harry und sein Kumpel Richie, sind die Stars der Streitkräfte. Doch die Faszination für den schnellsten Kampfjet der Welt steht einer dramatischen Unglücksserie gegenüber: Reihenweise stürzen Piloten mit dem „Starfighter“ in den Tod. Offi ziell werden die Katastrophen auf menschliches Versagen zurückgeführt. Doch Harrys Frau Betti glaubt nicht daran – und nach einem weiteren folgenschweren Unfall nimmt sie, unterstützt von ihrer Freundin Helga, den Kampf gegen ein scheinbar übermächtiges Bündnis aus Politik, Militär und Wirtschaft auf.



General
Unique ID                                : 194809621010177555212187619960832545388 (0x928EF7DF9D15D710B90AA8C122E2526C)
Complete name                            : w-stafig-1080p.mkv
Format                                   : Matroska
Format version                           : Version 2
File size                                : 7.11 GiB
Duration                                 : 2h 4mn
Overall bit rate                         : 8 164 Kbps
Encoded date                             : UTC 2017-01-12 16:43:23
Writing application                      : mkvmerge v3.3.0 ('Language') gebaut am Mar 24 2010 14:59:24
Writing library                          : libebml v0.8.0 + libmatroska v0.9.0

Video
ID                                       : 1
Format                                   : AVC
Format/Info                              : Advanced Video Codec
Format profile                           : High@L4.1
Format settings, CABAC                   : Yes
Format settings, ReFrames                : 4 frames
Codec ID                                 : V_MPEG4/ISO/AVC
Duration                                 : 2h 4mn
Bit rate                                 : 6 493 Kbps
Width                                    : 1 920 pixels
Height                                   : 1 080 pixels
Display aspect ratio                     : 16:9
Frame rate mode                          : Constant
Frame rate                               : 25.000 fps
Color space                              : YUV
Chroma subsampling                       : 4:2:0
Bit depth                                : 8 bits
Scan type                                : Progressive
Bits/(Pixel*Frame)                       : 0.125
Stream size                              : 5.65 GiB (80%)
Writing library                          : x264 core 148 r2744 b97ae06
Encoding settings                        : cabac=1 / ref=4 / deblock=1:0:0 / analyse=0x3:0x113 / me=umh / subme=7 / psy=1 / psy_rd=1.00:0.00 / mixed_ref=1 / me_range=16 / chroma_me=1 / trellis=1 / 8x8dct=1 / cqm=0 / deadzone=21,11 / fast_pskip=0 / chroma_qp_offset=-2 / threads=18 / lookahead_threads=3 / sliced_threads=0 / nr=0 / decimate=1 / interlaced=0 / bluray_compat=0 / constrained_intra=0 / bframes=3 / b_pyramid=2 / b_adapt=1 / b_bias=0 / direct=1 / weightb=1 / open_gop=0 / weightp=2 / keyint=250 / keyint_min=25 / scenecut=40 / intra_refresh=0 / rc_lookahead=40 / rc=crf / mbtree=1 / crf=20.0 / qcomp=0.60 / qpmin=0 / qpmax=69 / qpstep=4 / ip_ratio=1.40 / aq=1:1.00
Language                                 : German
Default                                  : No
Forced                                   : No

Audio
ID                                       : 2
Format                                   : DTS
Format/Info                              : Digital Theater Systems
Mode                                     : 16
Format settings, Endianness              : Big
Codec ID                                 : A_DTS
Duration                                 : 2h 4mn
Bit rate mode                            : Constant
Bit rate                                 : 1 509 Kbps
Channel(s)                               : 6 channels
Channel positions                        : Front: L C R, Side: L R, LFE
Sampling rate                            : 48.0 KHz
Bit depth                                : 24 bits
Compression mode                         : Lossy
Stream size                              : 1.31 GiB (18%)
Title                                    : German
Language                                 : German
Default                                  : Yes
Forced                                   : No


Download:
Share Online Share OnlineShare OnlineShare Online
 

Kommentare