Filmwünsche können bei uns im Forum abgegeben werden

Wir Speichern Nicht




 
 
 
Top Releases
Dalida.2016.GERMAN.720p.BluR...
Dalida.2016.GERMAN.1080p.Blu...
Dalida.2016.DUAL.COMPLETE.BL...
Mein.fast.perfekter.Vater.Th...
Die.Tribute.von.Panem.Catchi...
The.Accountant.2016.German.D...
X.Men.Zukunft.ist.Vergangenh...
Promised.Land.2012.German.DL...
Oblivion.2013.German.DL.1080...
Monster.Hunt.2015.German.DL....

Cinedubs
Flatliners.2017.German.AC3MD...
Flatliners.2017.German.AC3MD...
Dunkirk.2017.IMAX.German.AC3...
Dunkirk.2017.IMAX.German.AC3...
Dunkirk.2017.IMAX.German.AC3...
Schneemann.German.DL.AC3.Dub...
ES.2017.German.DL.AC3.Dubbed...
Dunkirk.2017.German.AC3MD.DL...
The.Lego.Ninjago.Movie.2017....
The.Lego.Ninjago.Movie.2017....

Neuerscheinungen 2016-17
The.Holly.Kane.Experiment.20...
Iron.Man.2.4k.2010.multi.com...
Escape.Room.2017.German.DL.1...
Escape.Room.2017.German.720p...
Max.Agent.auf.vier.Pfoten.20...
Max.Agent.auf.vier.Pfoten.20...
Max.Agent.auf.vier.Pfoten.20...
Leatherface.2017.German.720p...
Leatherface.2017.German.DL.1...
Deep.Purple.From.Here.to.inF...

XXX
RealAgent.17.10.01.Mia.Wants...
RealAgent.17.09.07.Ally.Bree...
RealAgent.17.09.07.Nestys.Le...
PremiumBukkake.17.09.20.Ria....
QuebecProductions.16.02.11.A...
RealAgent.17.09.15.Nikki.Wai...
QuebecProductions.16.02.26.S...
PrivateSociety.17.12.02.Melo...
RealAgent.17.09.22.Jessica.L...
PornMegaLoad.17.12.01.Sandra...
QuebecProductions.16.01.28.N...
QuebecProductions.16.01.22.C...
RealAgent.17.09.07.Empera.Ad...
QuebecProductions.16.02.25.A...
PrincessCum.17.11.28.Lily.Ad...
PornMegaLoad.17.12.02.Kaci.L...
PornMegaLoad.17.11.30.Mahoga...
PropertySex.17.12.01.Victori...
PublicAgent.17.12.01.Jessica...
RealAgent.17.09.10.Party.Les...

3D
Walhalla.Rising.3D.2009.Germ...
Spider.Man.Homecoming.3D.Ger...
Valerian.Die.Stadt.der.tause...
Valerian.Die.Stadt.der.tause...
Valerian.Die.Stadt.der.tause...
Valerian.Die.Stadt.der.tause...
Warcraft.The.Beginning.3D.HS...
Transformers.The.Last.Knight...
Warcraft.The.Beginning.3D.HO...
Die.Schneekoenigin.3.Feuer.u...
Die.Schneekoenigin.3.Feuer.u...
Terra.X.Dracula.-.Die.wahre....
Abenteuer.Safari.3D.Safari.P...
Die.Schneekoenigin.3.3D.2016...
Spider.Man.Homecoming.3D.201...

Old_Stuff
American.Sniper.2014.MULTi.C...
Hana-bi.Feuerblume.1997.Germ...
Memphis.Belle.1990.German.DL...
Im.Schatten.des.Mondes.Germa...
Tomb.Raider.2001.DUAL.COMPLE...
Tomb.Raider.Die.Wiege.des.Le...
Party.Animals.3.German.AC3.7...
The.Rocky.Horror.Picture.Sho...
Die.Fliege.1986.German.DTS.1...
Mimic.2.2001.German.DD5.1D.D...
The.Tournament.UNCUT.2009.Ge...
Dr.House.S08.German.720p.Blu...
Dr.House.S07.German.720p.Blu...
Dr.House.S06.German.720p.Blu...
Dr.House.S05.German.720p.Blu...

Musik
Remote.Galaxy.by.Flint.Juven...
Trondheim.Solistene.Souvenir...
The.Beatles.Sgt.Peppers.Lone...
The.Prometheus.Dolby.Atmos.E...
R.E.M.OUT.OF.TIME.25th.Anniv...
The.Rolling.Stones.GRRR.BR-A...
Mussorgsky.Bilder.einer.Auss...
Yes.-.The.Yes.Album.Bluray-A...
Carlos.Heredia.Gypsy.Flamenc...
SPES.2014.complete.Bluray.un...
Carlos.Santana.Collection.19...
Pink.Floyd.The.Endless.River...
The.Hyperion.Romantic.Piano....
Putumayo.113.CD.Flac.lossles...
UFO.Let.It.Roll.Limited.Edit...

Filme
Starship.Troopers.1997.Germa...
Colors.Farben.der.Gewalt.UNR...
Das.Privatleben.des.Sherlock...
Twin.Dragons.1992.German.AC3...
Strike.One.2014.German.AC3.D...
The.Good.Fight.S01.GERMAN.DU...
Game.of.thrones.s07d01.2017....
187.Eine.toedliche.Zahl.1997...
Gib.dem.Affen.Zucker.1981.RE...
Gib.dem.Affen.Zucker.1981.RE...
Good.Behavior.S02.GERMAN.720...
Kevin.Can.Wait.S02.German.10...
Kevin.Can.Wait.S02.German.72...
Blindspot.S02.COMPLETE.Germa...
The.Librarians.S03.COMPLETE....
Outlander.S03.German.DD51.DL...
Outlander.S03.German.DD51.DL...
Manhunt.Unabomber.S01.German...
Manhunt.Unabomber.S01.German...
The.Walking.Dead.S08.GERMAN....
Zebo.der.Dritte.aus.der.Ster...
Mimzy.Meine.Freundin.aus.der...
Supernatural.S11.COMPLETE.Ge...
No.Problem.2010.German.1080p...

 
 
Berlin.Station.S02.German.1080p.WebHD.x264-AIDA
Jahr: 2017
Genre: Thriller
Sprache: Deutsch AC3
Laufzeit: 52min je Folge
Bitrate: 7300 Kbps
Format: MKV
Größe: 2,8 GB je Folge
Release:

Beschreibung:

„Berlin Station“ ist ein Spionagedrama von Michaël R. Roskam. Die Handlung führt den Kontaktoffizier Daniel Meyer (Richard Armitage) von Langley ins CIA-Büro in Berlin. Hier soll er in einer geheimen Mission die undichte Stelle ausfindig machen, die den Whistle-Blower Thomas Shaw mit Informationen versorgt hat. Dort trifft er auf die Leiterin des Büros, Valerie Edwards (Michelle Forbes), die keinen Spaß versteht.

Meyer wird damit beauftragt, die Quelle zu finden, durch die der berühmte Whistleblower Thomas Shaw an Informationen gelangen konnte. Angeleitet wird er dabei von dem erfahrenen Agenten Hector DeJean (Rhys Ifans).

 

enthaltene Folgen:

Berlin.Station.S02E01.German.1080p.WebHD.x264-AIDA 

Berlin.Station.S02E02.German.1080p.WebHD.x264-AIDA

Berlin.Station.S02E03.German.1080p.WebHD.x264-AIDA

Berlin.Station.S02E04.German.1080p.WebHD.x264-AIDA

Berlin.Station.S02E05.German.1080p.WebHD.x264-AIDA

Berlin.Station.S02E06.German.1080p.WebHD.x264-AIDA

Berlin.Station.S02E07.German.1080p.WebHD.x264-AIDA

Berlin.Station.S02E08.German.1080p.WebHD.x264-AIDA

Berlin.Station.S02E09.German.1080p.WebHD.x264-AIDA NEU



General
Complete name                            : Berlin.Station.S02E01.German.1080p.WebHD.x264-AIDA\berlin.station.s02e01.german.1080p.webhd.x264-aida.mkv
Format                                   : Matroska
Format version                           : Version 2
File size                                : 2.83 GiB
Duration                                 : 51mn 44s
Overall bit rate                         : 7 835 Kbps
Writing application                      : mkvmerge v4.1.1 ('Bouncin' Back') built on Jul  3 2010 22:54:08
Writing library                          : libebml v1.0.0 + libmatroska v1.0

Video
ID                                       : 1
Format                                   : AVC
Format/Info                              : Advanced Video Codec
Format profile                           : High@L4.1
Format settings, CABAC                   : Yes
Format settings, ReFrames                : 4 frames
Codec ID                                 : V_MPEG4/ISO/AVC
Duration                                 : 51mn 44s
Bit rate                                 : 7 295 Kbps
Width                                    : 1 920 pixels
Height                                   : 1 080 pixels
Display aspect ratio                     : 16:9
Frame rate mode                          : Constant
Frame rate                               : 23.976 fps
Color space                              : YUV
Chroma subsampling                       : 4:2:0
Bit depth                                : 8 bits
Scan type                                : Progressive
Bits/(Pixel*Frame)                       : 0.147
Stream size                              : 2.64 GiB (93%)
Writing library                          : x264 core 152 r2851 ba24899
Encoding settings                        : cabac=1 / ref=4 / deblock=1:-3:-3 / analyse=0x3:0x133 / me=umh / subme=8 / psy=1 / psy_rd=1.00:0.15 / mixed_ref=1 / me_range=16 / chroma_me=1 / trellis=1 / 8x8dct=1 / cqm=0 / deadzone=21,11 / fast_pskip=0 / chroma_qp_offset=-3 / threads=12 / lookahead_threads=2 / sliced_threads=0 / nr=0 / decimate=1 / interlaced=0 / bluray_compat=0 / constrained_intra=0 / bframes=3 / b_pyramid=2 / b_adapt=2 / b_bias=0 / direct=3 / weightb=1 / open_gop=0 / weightp=2 / keyint=240 / keyint_min=24 / scenecut=40 / intra_refresh=0 / rc_lookahead=50 / rc=crf / mbtree=1 / crf=19.0 / qcomp=0.60 / qpmin=0 / qpmax=69 / qpstep=4 / ip_ratio=1.40 / aq=1:1.00
Language                                 : English
Default                                  : Yes
Forced                                   : No

Audio
ID                                       : 2
Format                                   : AC-3
Format/Info                              : Audio Coding 3
Mode extension                           : CM (complete main)
Format settings, Endianness              : Big
Codec ID                                 : A_AC3
Duration                                 : 51mn 44s
Bit rate mode                            : Constant
Bit rate                                 : 384 Kbps
Channel(s)                               : 6 channels
Channel positions                        : Front: L C R, Side: L R, LFE
Sampling rate                            : 48.0 KHz
Bit depth                                : 16 bits
Compression mode                         : Lossy
Stream size                              : 142 MiB (5%)
Language                                 : German
Default                                  : Yes
Forced                                   : No



Download:
Share-Online.biz Share-Online.bizShare-Online.bizShare-Online.biz | Rapidgator.net Rapidgator.netRapidgator.netRapidgator.net
 

Kommentare