Filmwünsche können bei uns im Forum abgegeben werden

Wir Speichern Nicht




 
 
 
Top Releases
Spider.Man.Homecoming.2017.G...
Die.Mumie.2017.Multi.complet...
Argo.2012.Multi.complete.Blu...
The.Spacewalker.2017.DL.comp...
Annabelle.2.2017.German.AC3....
Der.dunkle.Turm.2017.German....
Veronica.2017.German.AC3.108...
Annabelle.2.2017.German.1080...
Der.Dunkle.Turm.2017.German....
Der.Dunkle.Turm.2017.German....

Cinedubs
Wish.Upon.2017.German.AC3.72...
Valerian.Die.Stadt.der.tause...
Valerian.Die.Stadt.der.tause...
Happy.Death.Day.German.DL.AC...
Happy.Death.Day.German.DL.AC...
Logan.Lucky.German.AC3LD.DL....
Sleight.Tricks.und.Drugs.und...
Sleight.Tricks.und.Drugs.und...
Once.Upon.a.Time.in Venice.2...
Good.Kids.Apfelkuchen.war.ge...

Neuerscheinungen 2016-17
Die.Super.Cops.Allzeit.verru...
A-ha.MTV.Unplugged.Summer.So...
Die.Super.Cops.Allzeit.verru...
Antigang.German.2015.1080p.B...
Die.Super.Cops.Allzeit.verru...
Die.Super.Cops.Allzeit.verru...
Sting.Live.at.the.Olympia.Pa...
Die.Piratenbraut.Cutthroat.I...
Perdita.Durango.1997.COMPLET...
Annabelle.2.2017.German.AC3....

XXX
MyWifesHotFriend.17.11.07.Ch...
MetArtX.17.11.08.Aislin.BBQ....
AllFineGirls.17.11.10.Milagr...
AdultAuditions.E28.Blonde.Pu...
AdultAuditions.E30.Blonde.Pu...
LethalHardcore.Desperate.Hou...
MyGirlfriendsBustyFriend.17....
AdultAuditions.E27.Bikini.Mo...
AdultAuditions.E24.Scrumptio...
NannySpy.17.10.03.Bella.Rose...
MyFirstSexTeacher.17.11.09.A...
MyWifesHotFriend.17.11.08.Ol...
MyFirstSexTeacher.17.11.09.A...
NannySpy.17.10.10.Kimmy.Gran...
NaughtyRichGirls.17.11.09.Ki...
MomXXX.17.11.08.Lili.Parker....
MeloneChallenge.17.11.07.Wen...
MetArtFilms.17.10.09.Patritc...
NannySpy.17.09.19.Charity.Cr...
NannySpy.17.11.07.Lilly.Ford...

3D
The.Spacewalker.3D.2017.DL.c...
Ich.Einfach.unverbesserlich....
Ich.Einfach.unverbesserlich....
Jail.Bait.3D.2013.2D3D.MULTi...
Planet.der.Affen.Survival.20...
Planet.der.Affen.Survival.20...
Sword.Master.3D.2016.2D3D.GE...
Sword.Master.3D.2016.German....
Planet.der.Affen.Survival.3D...
Planet.der.Affen.Survival.3D...
Planet.der.Affen.Survival.3D...
Coraline.3D.German.1080p.Blu...
Fuerst.der.Finsternis.3D.201...
Transformers.The.Last.Knight...
Transformers.The.Last.Knight...

Old_Stuff
Tomb.Raider.2001.DUAL.COMPLE...
Tomb.Raider.Die.Wiege.des.Le...
Party.Animals.3.German.AC3.7...
The.Rocky.Horror.Picture.Sho...
Die.Fliege.1986.German.DTS.1...
Mimic.2.2001.German.DD5.1D.D...
The.Tournament.UNCUT.2009.Ge...
Dr.House.S08.German.720p.Blu...
Dr.House.S07.German.720p.Blu...
Dr.House.S06.German.720p.Blu...
Dr.House.S05.German.720p.Blu...
Dr.House.S04.German.720p.Blu...
Dr.House.S03.German.720p.Blu...
Dr.House.S02.German.720p.Blu...
Dr.House.S01.German.720p.Blu...

Musik
Remote.Galaxy.by.Flint.Juven...
Trondheim.Solistene.Souvenir...
The.Beatles.Sgt.Peppers.Lone...
The.Prometheus.Dolby.Atmos.E...
R.E.M.OUT.OF.TIME.25th.Anniv...
The.Rolling.Stones.GRRR.BR-A...
Mussorgsky.Bilder.einer.Auss...
Yes.-.The.Yes.Album.Bluray-A...
Carlos.Heredia.Gypsy.Flamenc...
SPES.2014.complete.Bluray.un...
Carlos.Santana.Collection.19...
Pink.Floyd.The.Endless.River...
The.Hyperion.Romantic.Piano....
Putumayo.113.CD.Flac.lossles...
UFO.Let.It.Roll.Limited.Edit...

Filme
Perdita.Durango.1997.German....
The.Walking.Dead.S08.GERMAN....
The.Walking.Dead.S08.GERMAN....
Babylon.Berlin.S02.German.AC...
The.Exorcist.S01.COMPLETE.GE...
Killer-Paare.-.Toedliches.Ve...
Killer-Paare.-.Toedliches.Ve...
Killer-Paare.-.Toedliches.Ve...
Killer-Paare.-.Toedliches.Ve...
Der.Ungluecksritter.aka.Manc...
Verliebt.in.eine.Hexe.2005.G...
The.Crossing.Guard.1995.Germ...
Normandie.Die.letzte.Mission...
Interceptor.-.The.Wraith.Unc...
Interceptor.-.The.Wraith.Unc...
Schlagzeilen.1994.German.AC3...
Playing.By.Heart.Leben.und.L...
Police.Story.3.Super.Cop.199...
Der.Unbeugsame.Cool.Hand.Luk...
Criminal.Minds.S01.COMPLETE....
Airport.Security.Colombia.S0...
Drone.Toedliche.Mission.2017...
Drone.Toedliche.Mission.2017...
Zu.scharf.um.wahr.zu.sein.20...

 
 
What.Happened.to.Monday.2017.GERMAN.MD.DL.720p.WEB.x264-iND
Jahr: 2017
Genre: Action, Abenteuer
Sprache: Deutsch AC3 | Englisch AC3
Laufzeit: 2h 3mn
Bitrate: 2 198 Kbps
Format: MKV
Größe: 1.90 GiB
Release:

Beschreibung:

In einer nahen Zukunft haben Überbevölkerung und Hungersnot zu einer drastischen Ein-Kind-Politik geführt. Dadurch sind sieben identisch aussehende Schwestern zu einem Versteckspiel gezwungen, um der Verfolgung durch das „Child Allocation Bureau“ unter Leitung der unerbittlichen Nicolette Cayman zu entkommen. Um zu überleben, müssen Monday, Tuesday, Wednesday, Thursday, Friday, Saturday und Sunday, wie die Frauen von ihrem Großvater genannt wurden, die Identität einer fiktiven Person annehmen – Karen Settman. Einmal pro Woche darf jede der Schwestern am Wochentag, dessen Namen sie trägt, an die Öffentlichkeit und am Leben teilnehmen, während die restlichen sechs in der gemeinsamen Wohnung gefangen sind. Das geht so lange gut, bis Monday eines Tages nicht mehr nach Hause zurückkehrt….



General
Unique ID                                : 204044846137269354482421269380277267202 (0x99819BA078F2BF5ABE9D8905CEB4EB02)
Complete name                            : ind-whathappened.web-720.mkv
Format                                   : Matroska
Format version                           : Version 4 / Version 2
File size                                : 1.90 GiB
Duration                                 : 2h 3mn
Overall bit rate mode                    : Variable
Overall bit rate                         : 2 198 Kbps
Encoded date                             : UTC 2017-10-18 06:02:57
Writing application                      : mkvmerge v9.7.1 ('Pandemonium') 64bit
Writing library                          : libebml v1.3.4 + libmatroska v1.4.5
DURATION                                 : 02:03:28.080000000
NUMBER_OF_FRAMES                         : 308670
NUMBER_OF_BYTES                          : 118535712
_STATISTICS_WRITING_APP                  : mkvmerge v9.7.1 ('Pandemonium') 64bit
_STATISTICS_WRITING_DATE_UTC             : 2017-10-18 06:02:57
_STATISTICS_TAGS                         : BPS DURATION NUMBER_OF_FRAMES NUMBER_OF_BYTES

Video
ID                                       : 1
Format                                   : AVC
Format/Info                              : Advanced Video Codec
Format profile                           : Main@L3.1
Format settings, CABAC                   : Yes
Format settings, ReFrames                : 3 frames
Codec ID                                 : V_MPEG4/ISO/AVC
Duration                                 : 2h 3mn
Bit rate mode                            : Variable
Bit rate                                 : 1 690 Kbps
Maximum bit rate                         : 2 535 Kbps
Width                                    : 1 280 pixels
Height                                   : 720 pixels
Display aspect ratio                     : 16:9
Frame rate mode                          : Constant
Frame rate                               : 24.000 fps
Color space                              : YUV
Chroma subsampling                       : 4:2:0
Bit depth                                : 8 bits
Scan type                                : Progressive
Bits/(Pixel*Frame)                       : 0.076
Stream size                              : 1.42 GiB (75%)
Writing library                          : x264 core 118
Encoding settings                        : cabac=1 / ref=3 / deblock=1:0:0 / analyse=0x1:0x111 / me=umh / subme=10 / psy=1 / psy_rd=1.00:0.00 / mixed_ref=1 / me_range=24 / chroma_me=1 / trellis=2 / 8x8dct=0 / cqm=0 / deadzone=21,11 / fast_pskip=1 / chroma_qp_offset=-2 / threads=8 / sliced_threads=0 / nr=0 / decimate=1 / interlaced=0 / bluray_compat=0 / constrained_intra=0 / bframes=2 / b_pyramid=0 / b_adapt=2 / b_bias=0 / direct=3 / weightb=1 / open_gop=0 / weightp=2 / keyint=48 / keyint_min=25 / scenecut=0 / intra_refresh=0 / rc_lookahead=0 / rc=2pass / mbtree=1 / bitrate=1690 / ratetol=1.0 / qcomp=0.50 / qpmin=6 / qpmax=51 / qpstep=4 / cplxblur=20.0 / qblur=0.5 / vbv_maxrate=2535 / vbv_bufsize=3380 / nal_hrd=vbr / ip_ratio=1.40 / aq=1:1.00
Default                                  : Yes
Forced                                   : No

Audio #1
ID                                       : 2
Format                                   : MPEG Audio
Format version                           : Version 1
Format profile                           : Layer 3
Codec ID                                 : A_MPEG/L3
Codec ID/Hint                            : MP3
Duration                                 : 2h 3mn
Bit rate mode                            : Variable
Bit rate                                 : 128 Kbps
Channel(s)                               : 1 channel
Sampling rate                            : 48.0 KHz
Compression mode                         : Lossy
Stream size                              : 113 MiB (6%)
Writing library                          : LAME3.99.5
Language                                 : German
Default                                  : Yes
Forced                                   : No

Audio #2
ID                                       : 3
Format                                   : AC-3
Format/Info                              : Audio Coding 3
Mode extension                           : CM (complete main)
Format settings, Endianness              : Big
Codec ID                                 : A_AC3
Duration                                 : 2h 3mn
Bit rate mode                            : Constant
Bit rate                                 : 384 Kbps
Channel(s)                               : 6 channels
Channel positions                        : Front: L C R, Side: L R, LFE
Sampling rate                            : 48.0 KHz
Bit depth                                : 16 bits
Compression mode                         : Lossy
Stream size                              : 340 MiB (17%)
Language                                 : English
Default                                  : No
Forced                                   : No

Text #1
ID                                       : 4
Format                                   : UTF-8
Codec ID                                 : S_TEXT/UTF8
Codec ID/Info                            : UTF-8 Plain Text
Language                                 : English
Default                                  : No
Forced                                   : No

Text #2
ID                                       : 5
Format                                   : UTF-8
Codec ID                                 : S_TEXT/UTF8
Codec ID/Info                            : UTF-8 Plain Text
Title                                    : SDH
Language                                 : English
Default                                  : No
Forced                                   : No


Download:
Share Online Share OnlineShare OnlineShare Online
 

Kommentare

  1. Geschrieben am 19. October 2017, 17:30 Uhr von i-snode · #

    ist schon wieder offline – 1080 als auch 720.

    \wieder online