Filmwünsche können bei uns im Forum abgegeben werden

Wir Speichern Nicht




 
 
 
Top Releases
Spider.Man.Homecoming.2017.G...
Die.Mumie.2017.Multi.complet...
Argo.2012.Multi.complete.Blu...
The.Spacewalker.2017.DL.comp...
Annabelle.2.2017.German.AC3....
Der.dunkle.Turm.2017.German....
Veronica.2017.German.AC3.108...
Annabelle.2.2017.German.1080...
Der.Dunkle.Turm.2017.German....
Der.Dunkle.Turm.2017.German....

Cinedubs
Wish.Upon.2017.German.AC3.72...
Valerian.Die.Stadt.der.tause...
Valerian.Die.Stadt.der.tause...
Happy.Death.Day.German.DL.AC...
Happy.Death.Day.German.DL.AC...
Logan.Lucky.German.AC3LD.DL....
Sleight.Tricks.und.Drugs.und...
Sleight.Tricks.und.Drugs.und...
Once.Upon.a.Time.in Venice.2...
Good.Kids.Apfelkuchen.war.ge...

Neuerscheinungen 2016-17
Die.Super.Cops.Allzeit.verru...
A-ha.MTV.Unplugged.Summer.So...
Die.Super.Cops.Allzeit.verru...
Antigang.German.2015.1080p.B...
Die.Super.Cops.Allzeit.verru...
Die.Super.Cops.Allzeit.verru...
Sting.Live.at.the.Olympia.Pa...
Die.Piratenbraut.Cutthroat.I...
Perdita.Durango.1997.COMPLET...
Annabelle.2.2017.German.AC3....

XXX
MyWifesHotFriend.17.11.07.Ch...
MetArtX.17.11.08.Aislin.BBQ....
AllFineGirls.17.11.10.Milagr...
AdultAuditions.E28.Blonde.Pu...
AdultAuditions.E30.Blonde.Pu...
LethalHardcore.Desperate.Hou...
MyGirlfriendsBustyFriend.17....
AdultAuditions.E27.Bikini.Mo...
AdultAuditions.E24.Scrumptio...
NannySpy.17.10.03.Bella.Rose...
MyFirstSexTeacher.17.11.09.A...
MyWifesHotFriend.17.11.08.Ol...
MyFirstSexTeacher.17.11.09.A...
NannySpy.17.10.10.Kimmy.Gran...
NaughtyRichGirls.17.11.09.Ki...
MomXXX.17.11.08.Lili.Parker....
MeloneChallenge.17.11.07.Wen...
MetArtFilms.17.10.09.Patritc...
NannySpy.17.09.19.Charity.Cr...
NannySpy.17.11.07.Lilly.Ford...

3D
The.Spacewalker.3D.2017.DL.c...
Ich.Einfach.unverbesserlich....
Ich.Einfach.unverbesserlich....
Jail.Bait.3D.2013.2D3D.MULTi...
Planet.der.Affen.Survival.20...
Planet.der.Affen.Survival.20...
Sword.Master.3D.2016.2D3D.GE...
Sword.Master.3D.2016.German....
Planet.der.Affen.Survival.3D...
Planet.der.Affen.Survival.3D...
Planet.der.Affen.Survival.3D...
Coraline.3D.German.1080p.Blu...
Fuerst.der.Finsternis.3D.201...
Transformers.The.Last.Knight...
Transformers.The.Last.Knight...

Old_Stuff
Tomb.Raider.2001.DUAL.COMPLE...
Tomb.Raider.Die.Wiege.des.Le...
Party.Animals.3.German.AC3.7...
The.Rocky.Horror.Picture.Sho...
Die.Fliege.1986.German.DTS.1...
Mimic.2.2001.German.DD5.1D.D...
The.Tournament.UNCUT.2009.Ge...
Dr.House.S08.German.720p.Blu...
Dr.House.S07.German.720p.Blu...
Dr.House.S06.German.720p.Blu...
Dr.House.S05.German.720p.Blu...
Dr.House.S04.German.720p.Blu...
Dr.House.S03.German.720p.Blu...
Dr.House.S02.German.720p.Blu...
Dr.House.S01.German.720p.Blu...

Musik
Remote.Galaxy.by.Flint.Juven...
Trondheim.Solistene.Souvenir...
The.Beatles.Sgt.Peppers.Lone...
The.Prometheus.Dolby.Atmos.E...
R.E.M.OUT.OF.TIME.25th.Anniv...
The.Rolling.Stones.GRRR.BR-A...
Mussorgsky.Bilder.einer.Auss...
Yes.-.The.Yes.Album.Bluray-A...
Carlos.Heredia.Gypsy.Flamenc...
SPES.2014.complete.Bluray.un...
Carlos.Santana.Collection.19...
Pink.Floyd.The.Endless.River...
The.Hyperion.Romantic.Piano....
Putumayo.113.CD.Flac.lossles...
UFO.Let.It.Roll.Limited.Edit...

Filme
Perdita.Durango.1997.German....
The.Walking.Dead.S08.GERMAN....
The.Walking.Dead.S08.GERMAN....
Babylon.Berlin.S02.German.AC...
The.Exorcist.S01.COMPLETE.GE...
Killer-Paare.-.Toedliches.Ve...
Killer-Paare.-.Toedliches.Ve...
Killer-Paare.-.Toedliches.Ve...
Killer-Paare.-.Toedliches.Ve...
Der.Ungluecksritter.aka.Manc...
Verliebt.in.eine.Hexe.2005.G...
The.Crossing.Guard.1995.Germ...
Normandie.Die.letzte.Mission...
Interceptor.-.The.Wraith.Unc...
Interceptor.-.The.Wraith.Unc...
Schlagzeilen.1994.German.AC3...
Playing.By.Heart.Leben.und.L...
Police.Story.3.Super.Cop.199...
Der.Unbeugsame.Cool.Hand.Luk...
Criminal.Minds.S01.COMPLETE....
Airport.Security.Colombia.S0...
Drone.Toedliche.Mission.2017...
Drone.Toedliche.Mission.2017...
Zu.scharf.um.wahr.zu.sein.20...

 
 
Bad.Day.for.the.Cut.2017.1080p.WEB-DL.DD5.1.H264-FGT
Jahr: 2017
Genre: Thriller
Sprache: Englisch AC3
Laufzeit: 1h 39mn
Bitrate: 4 916 Kbps
Format: MKV
Größe: 3.40 GiB
Release:

Beschreibung:

Als die Mutter eines mittelalterlichen, irischen Farmers ermordet wird, macht sich dieser auf eine Mission zur Rache.



Unique ID                                : 199198312654686946442305857364226245736 (0x95DC3313D4117903AC25FC0EC68C8468)
Complete name                            : Bad.Day.for.the.Cut.2017.1080p.WEB-DL.DD5.1.H264-FGT.mkv
Format                                   : Matroska
Format version                           : Version 4 / Version 2
File size                                : 3.40 GiB
Duration                                 : 1h 39mn
Overall bit rate                         : 4 916 Kbps
Movie name                               : Bad.Day.for.the.Cut.2017.1080p.WEB-DL.DD5.1.H264-FGT
Encoded date                             : UTC 2017-10-20 04:34:14
Writing application                      : mkvmerge v16.0.0 ('Protest') 64-bit
Writing library                          : libebml v1.3.5 + libmatroska v1.4.8
Attachements                             : small_cover_land.jpg / cover.jpg / cover_land.jpg / small_cover.jpg

Video
ID                                       : 1
Format                                   : AVC
Format/Info                              : Advanced Video Codec
Format profile                           : High@L4.0
Format settings, CABAC                   : Yes
Format settings, ReFrames                : 5 frames
Codec ID                                 : V_MPEG4/ISO/AVC
Duration                                 : 1h 39mn
Bit rate                                 : 4 434 Kbps
Width                                    : 1 920 pixels
Height                                   : 802 pixels
Display aspect ratio                     : 2.40:1
Frame rate mode                          : Constant
Frame rate                               : 24.000 fps
Color space                              : YUV
Chroma subsampling                       : 4:2:0
Bit depth                                : 8 bits
Scan type                                : Progressive
Bits/(Pixel*Frame)                       : 0.120
Stream size                              : 3.07 GiB (90%)
Title                                    : Bad.Day.for.the.Cut.2017.1080p.WEB-DL.DD5.1.H264-FGT
Language                                 : English
Default                                  : Yes
Forced                                   : No
Color primaries                          : BT.709
Transfer characteristics                 : BT.709
Matrix coefficients                      : BT.709

Audio
ID                                       : 2
Format                                   : AC-3
Format/Info                              : Audio Coding 3
Mode extension                           : CM (complete main)
Format settings, Endianness              : Big
Codec ID                                 : A_AC3
Duration                                 : 1h 39mn
Bit rate mode                            : Constant
Bit rate                                 : 384 Kbps
Channel(s)                               : 6 channels
Channel positions                        : Front: L C R, Side: L R, LFE
Sampling rate                            : 48.0 KHz
Bit depth                                : 16 bits
Compression mode                         : Lossy
Delay relative to video                  : -42ms
Stream size                              : 272 MiB (8%)
Title                                    : Bad.Day.for.the.Cut.2017.1080p.WEB-DL.DD5.1.H264-FGT
Language                                 : English
Default                                  : Yes
Forced                                   : No

Text
ID                                       : 3
Format                                   : UTF-8
Codec ID                                 : S_TEXT/UTF8
Codec ID/Info                            : UTF-8 Plain Text
Language                                 : English
Default                                  : Yes
Forced                                   : No


Download:
Share Online Share OnlineShare OnlineShare Online
 

Kommentare