Die aktuelle Sicherheitswarnung bei Filecrypt kann ignoriert werden! Man kümmert sich um das Problem!

DNS SERVER AENDERNum der staatlichen Zensur zu umgehen. Sollten wir von eurem Provider geseprrt werden, nutzt den TOR BROWSER oder ändert euren DNS SERVER.

Filmwünsche können bei uns im Forum abgegeben werden

Wir Speichern Nicht




 
 
 
Top Releases
The.Disaster.Artist.2017.MUL...
Shortwave.2016.COMPLETE.BLUR...
Maze.Runner.Die.Auserwaehlte...
Shortwave.2016.German.DL.108...
Shortwave.2016.German.720p.B...
Die.Morde.von.Madrid.2016.MU...
Jumanji.Willkommen.im.Dschun...
Die.Morde.von.Madrid.2016.GE...
Jumanji.Willkommen.im.Dschun...
Die.Morde.von.Madrid.2016.GE...

Cinedubs
Fifty.Shades.of.Grey.Befreit...
The.Disaster.Artist.2017.Ger...
The.Disaster.Artist.2017.Ger...
Peter.Hase.2018.German.MD.DL...
Peter.Hase.2018.German.MD.DL...
Pacific.Rim.2.Uprising.Germa...
Pacific.Rim.2.Uprising.Germa...
Winchester.2018.German.AC3MD...
Winchester.2018.German.AC3MD...
Red.Sparrow.German.DL.AC3.Du...

Neuerscheinungen 2017-18
Scarecrows.2017.COMPLETE.BLU...
Motorrad.The.Last.Ride.2017....
Motorrad.The.Last.Ride.2017....
Scarecrows.2017.German.720p....
Im.Jahr.des.Drachen.Year.of....
Bill.+.Teds.verrueckte.Reise...
Grease.2.1982.MULTi.COMPLETE...
Kickboxer.Die.Abrechnung.201...
Kickboxer.Die.Abrechnung.201...
Kickboxer.Die.Abrechnung.201...

XXX
WankItNow.18.03.17.Dolly.Suc...
GetYourKneesDirty.18.03.12.K...
WebYoung.18.03.16.Elsa.Jean....
Geki.Ranko.Yuki.Aida.XXX.108...
BlackSinner.17.06.20.Sheena....
ATKHairy.18.03.19.Niki.Snow....
GermanGooGirls.18.03.16.Ria....
Geki.Ranko.Yuki.Aida.XXX.720...
Watch4Beauty.18.03.21.Angel....
BlackSinner.17.06.20.Rochell...
WhenGirlsPlay.18.03.20.Amili...
Vixen.18.03.20.Tori.Black.XX...
YoungBusty.17.12.25.Jeanne.X...
YoungBusty.17.12.18.Nicole.L...
GhettoGaggers.E407.Shae.Spre...
YoungBusty.17.12.04.Nikki.Dr...
WetAndPuffy.18.03.19.Lucia.D...
Blacked.18.03.16.Abella.Dang...
GhettoGaggers.E406.Sharee.2....
YoungBusty.17.12.11.Anabelle...

3D
Jumanji.Welcome.To.The.Jungl...
Abraham.Lincoln.Vampire.Hunt...
Norwegen.3D.2013.MULTi.COMPL...
Star.Wars.Episode.VIII.Die.l...
Star.Wars.Episode.VIII.Die.l...
Star.Wars.Episode.VIII.Die.l...
Jumanji.Welcome.To.The.Jungl...
Star.Wars.The.Last.Jedi.2017...
Final.Storm.Der.Untergang.de...
Final.Storm.Der.Untergang.de...
Jumanji.Willkommen.im.Dschun...
Star.Wars.Episode.VIII.Die.l...
Star.Wars.Episode.VIII.Die.l...
Nightmare.Schlaf.nicht.ein.2...
Justice.League.3D.2017.HOU.G...

Old_Stuff
Sunshine.2007.MULTi.COMPLETE...
Sunshine.2007.German.DTS.DL....
Lawless.Die.Gesetzlosen.2012...
Cargo.Da.draussen.bist.du.al...
Nachts.im.Museum.2.2009.Germ...
Nachts.im.Museum.2006.German...
North.Country.Kaltes.Land.20...
Fuenf.Freunde.German.1080p.B...
Sin.City.2005.Theatrical.Cut...
Nuts.Durchgedreht.1987.Germa...
Antarctica.Gefangen.Im.Eis.2...
Terminator.2.Tag.Der.Abrechn...
Winters.Tale.2014.German.108...
Kampf.Der.Titanen.2010.Germa...
Bibi.und.Tina.Tohuwabohu.Tot...

Filme
NCIS.Los.Angeles.S09.GERMAN....
Happy.2017.S01.COMPLETE.Germ...
Happy.2017.S01.COMPLETE.Germ...
Greys.Anatomy.S14.German.Dub...
Britannia.S01D01-3.MULTi.COM...
Riverdale.S02.German.Dubbed....
Riverdale.S02.German.Dubbed....
Shameless.S08.GERMAN.DUBBED....
Shameless.S08.GERMAN.DUBBED....
The.Blacklist.S05.GERMAN.DUB...
The.Blacklist.S05.GERMAN.DUB...
Herbststurm.2014.German.DL.1...
Housebroken.2009.German.AC3....
Just.Add.Water.Das.Leben.ist...
Fifty.Shades.of.Grey.Befreit...
Zurueck.im.Sommer.2008.GERMA...
Crabs...die Zukunft.sind.wir...
Edgar.Wallace.Der.Faelscher....
Edgar.Wallace.Die.seltsame.G...
Vivah.-.Der.Weg.der.Liebe.-....
Maze.Runner.3.Die.Auserwaehl...
Die.gnadenlose.Clique.1986.G...
Krush.Groove.1985.German.AC3...
Atlantic.City.1980.Uncut.Ger...

 
 
Leatherface.2017.1080p.WEB-DL.DD5.1.H264-FGT
Jahr: 2017
Genre: Horror, Thriller
Sprache: Englisch AC3
Laufzeit: 1h 27mn
Bitrate: 4 955 Kbps
Format: MKV
Größe: 3.03 GiB
Release:

Beschreibung:

Texas: Die Tochter des örtlichen Sheriffs ist tot und der Jüngste aus der Familie Sawyer muss deswegen in die Nervenheilanstalt. Zehn Jahre später, die 70er, immer noch Texas: Zusammen mit drei anderen Patienten und einer entführten Krankenschwester flüchtet der Teenager aus dem Sanatorium. Verfolgt von einem geistesgestörten, rachsüchtigen Gesetzeshüter, dem Vater des toten Mädchens, hinterlässt die geflüchtete Gruppe eine Blutspur…

 

Prequel zu Tobe Hoopers “The Texas Chainsaw Massacre – Blutgericht in Texas”.



Unique ID                                : 250724476099494286486125334261944424905 (0xBC9FC712D4A0A17E84727A88C5FA19C9)
Complete name                            : Leatherface.2017.1080p.WEB-DL.DD5.1.H264-FGT.mkv
Format                                   : Matroska
Format version                           : Version 4 / Version 2
File size                                : 3.03 GiB
Duration                                 : 1h 27mn
Overall bit rate                         : 4 955 Kbps
Movie name                               : Leatherface.2017.1080p.WEB-DL.DD5.1.H264-FGT
Encoded date                             : UTC 2017-10-20 05:36:08
Writing application                      : mkvmerge v16.0.0 ('Protest') 64-bit
Writing library                          : libebml v1.3.5 + libmatroska v1.4.8
Attachements                             : small_cover_land.jpg / cover.jpg / cover_land.jpg / small_cover.jpg

Video
ID                                       : 1
Format                                   : AVC
Format/Info                              : Advanced Video Codec
Format profile                           : High@L4.0
Format settings, CABAC                   : Yes
Format settings, ReFrames                : 5 frames
Codec ID                                 : V_MPEG4/ISO/AVC
Duration                                 : 1h 27mn
Bit rate                                 : 4 472 Kbps
Width                                    : 1 920 pixels
Height                                   : 792 pixels
Display aspect ratio                     : 2.40:1
Frame rate mode                          : Constant
Frame rate                               : 23.976 fps
Color space                              : YUV
Chroma subsampling                       : 4:2:0
Bit depth                                : 8 bits
Scan type                                : Progressive
Bits/(Pixel*Frame)                       : 0.123
Stream size                              : 2.74 GiB (90%)
Title                                    : Leatherface.2017.1080p.WEB-DL.DD5.1.H264-FGT
Language                                 : English
Default                                  : Yes
Forced                                   : No
Color primaries                          : BT.709
Transfer characteristics                 : BT.709
Matrix coefficients                      : BT.709

Audio
ID                                       : 2
Format                                   : AC-3
Format/Info                              : Audio Coding 3
Mode extension                           : CM (complete main)
Format settings, Endianness              : Big
Codec ID                                 : A_AC3
Duration                                 : 1h 27mn
Bit rate mode                            : Constant
Bit rate                                 : 384 Kbps
Channel(s)                               : 6 channels
Channel positions                        : Front: L C R, Side: L R, LFE
Sampling rate                            : 48.0 KHz
Bit depth                                : 16 bits
Compression mode                         : Lossy
Delay relative to video                  : -42ms
Stream size                              : 241 MiB (8%)
Title                                    : Leatherface.2017.1080p.WEB-DL.DD5.1.H264-FGT
Language                                 : English
Default                                  : Yes
Forced                                   : No

Text
ID                                       : 3
Format                                   : UTF-8
Codec ID                                 : S_TEXT/UTF8
Codec ID/Info                            : UTF-8 Plain Text
Language                                 : English
Default                                  : Yes
Forced                                   : No


Download:
Share Online Share OnlineShare OnlineShare Online
 

Kommentare