DNS SERVER AENDERNum der staatlichen Zensur zu umgehen. Sollten wir von eurem Provider geseprrt werden, nutzt den TOR BROWSER oder ändert euren DNS SERVER.

Filmwünsche können bei uns im Forum abgegeben werden

Wir Speichern Nicht




 
 
 
Top Releases
Brain.on.Fire.2016.German.Du...
Brain.on.Fire.2016.German.Du...
The.Whiskey.Bandit.Allein.ge...
Loving.Vincent.2017.German.D...
Rise.of.the.Scythian.2018.Ge...
Der.geilste.Tag.2016.German....
Das.Leben.ist.ein.Fest.2017....
Central.Intelligence.EXTENDE...
Wind.River.2017.German.AC3.D...
Wonder.Wheel.2017.GERMAN.720...

Cinedubs
How.to.Party.with.Mom.2018.G...
How.to.Party.with.Mom.2018.G...
Ready.Player.One.German.DL.A...
Ready.Player.One.German.DL.A...
Rampage.2018.German.AC3D.DL....
Rampage.2018.German.AC3D.DL....
Tomb.Raider.2018.3D.HSBS.Ger...
Tomb.Raider.2018.3D.HOU.Germ...
Pacific.Rim.2.Uprising.3D.HO...
Pacific.Rim.2.Uprising.3D.HS...

Neuerscheinungen 2017-18
Menschen.am.Fluss.The.River....
Wahrheit.oder.Pflicht.2018.G...
Die.gnadenlosen.Vier.Posse.f...
Die.Wall.Street.Verschwoerun...
Die.Wall.Street.Verschwoerun...
Die.Wall.Street.Verschwoerun...
The.Lodgers.2017.MULTI.COMPL...
Hilfe.ich.hab.meine.Eltern.g...
Hilfe.Ich.hab.meine.Eltern.g...
Hilfe.Ich.habe.meine.Eltern....

XXX
PlayboyPlus.18.06.15.Darah.K...
Nubiles.18.06.13.Jia.Lissa.F...
ClubSeventeen.18.06.14.Lady....
ExposedWhores.E209.Mila.Jade...
Analized.18.06.14.London.Riv...
GFRevenge.18.06.13.Molly.Mae...
ClubSeventeen.16.03.06.Claud...
Anilos.18.06.13.Darla.Dildo....
Cucked.18.06.13.Athena.Palom...
BoundGangBangs.18.06.13.Deli...
BangBus.18.06.13.Rose.Monroe...
DigitalPlayground.18.06.13.D...
Anilos.18.06.13.Lexi.Lou.Lov...
MommyBlowsBest.18.06.13.Laur...
ClubSeventeen.16.03.14.Claud...
EvilAngel.Kianna.Dior.Busty....
DirtyMasseur.18.06.13.Nicole...
CastingFrancais.18.06.13.Lil...
ATKGirlfriends.18.06.13.Hale...
DogHouseDigital.18.06.13.Ale...

3D
Tomb.Raider.2018.3D.COMPLETE...
Zombies.Ueberlebe.die.Untote...
Der.Dschungel.Der.Zauber.ein...
Penthouse.Presents.Sexy.Sing...
The.LEGO.Ninjago.Movie.3D.20...
Zombies.Ueberlebe.die.Untote...
Norwegen.3D.2013.GERMAN.DL.D...
Norwegen.3D.2013.GERMAN.DOKU...
Jumanji.Willkommen.im.Dschun...
Jumanji.Welcome.To.The.Jungl...
Abraham.Lincoln.Vampire.Hunt...
Norwegen.3D.2013.MULTi.COMPL...
Star.Wars.Episode.VIII.Die.l...
Star.Wars.Episode.VIII.Die.l...
Star.Wars.Episode.VIII.Die.l...

Old_Stuff
Weissensee.S03.2015.GERMAN.C...
Weissensee.S01+S02.2010.GERM...
Die.Unglaublichen.-.The.Incr...
Der.grosse.Trick.1978.German...
Sully.2016.MULTi.COMPLETE.BL...
Tremors.3.Die.neue.Brut.2001...
Die.Indianer.von.Cleveland.2...
Dealt.2017.1080p.AMZN.WEB-DL...
Dealt.2017.720p.AMZN.WEB-DL....
Roter.Staub.aka.The.Brave.On...
Roter.Staub.aka.The.Brave.On...
Magic.in.the.Moonlight.2014....
The.LEGO.Ninjago.Movie.2017....
Zeit.der.Zaertlichkeit.1983....
Zeit.der.Zaertlichkeit.1983....

Filme
Boeing.Boeing.1965.German.AC...
Formel.1.Saison.2018.GERMAN....
Todfreunde.aka.Bad.Influence...
TinkerBell.und.die.Legende.v...
Dein.Schicksal.in.meiner.Han...
Dein.Schicksal.in.meiner.Han...
Entourage.2015.German.DL.108...
Die.Wilby-Verschwoerung.1975...
Die.Wilby-Verschwoerung.1975...
Die.Eiskoenigin.Voellig.unve...
Drag.Me.to.Hell.Unrated.Rema...
Evil.Dead.Die.Saat.Des.Boese...
Heute.bin.ich.Samba.2014.Ger...
Prinzessin.Mononoke.1997.Ger...
15.17.to.Paris.2018.German.D...
Der.Prinz.und.ich.2004.Germa...
Mein.Vetter.Winnie.-.My.Cous...
Gaensehaut.2015.German.AC3.D...
Moon.2009.German.DL.AC3.1080...
The.Royals.2015.S04.German.D...
Marvels.Runaways.S01.German....
The.Good.Fight.S02.German.DD...
The.Good.Fight.S02.German.DD...
Blindspot.S03.German.DL.DUBB...

 
 
The.Walking.Dead.S08.COMPLETE.GERMAN.DUBBED.DL.1080p.WebHD.x264-TVP
Jahr: 2017
Genre: Drama | Horror | Thriller
Sprache: Deutsch AC3 | Englisch AC3
Laufzeit: 45min je Folge
Bitrate: 14 Mbps
Format: MKV
Größe: 4,8 GB je Folge
Release:

Beschreibung:

Basierend auf einer Comic-Reihe von Robert Kirkman erzählt "The Walking Dead" die Geschichte einer Gruppe Überlebender nach einer Zombie-Apokalypse. Angeführt wird diese vom Polizisten Rick Grimes und seinem Kollegen Shane. Gemeinsam sind sie auf der Suche nach einem sicheren Zuhause.

 

enthaltene Folgen (Staffel komplett):

The.Walking.Dead.S08E01.Erster.Kampf.GERMAN.DUBBED.DL.1080p.WebHD.x264-TVP

The.Walking.Dead.S08E02.Die.Verdammten.GERMAN.DUBBED.DL.1080p.WebHD.x264-TVP

The.Walking.Dead.S08E03.Wir.oder.die.GERMAN.DUBBED.DL.1080p.WebHD.x264-TVP

The.Walking.Dead.S08E04.Nur.Irgendwer.GERMAN.DUBBED.DL.1080p.WebHD.x264.REPACK-TVP

The.Walking.Dead.S08E05.Die.Beichte.GERMAN.DUBBED.DL.1080p.WebHD.x264-TVP

The.Walking.Dead.S08E06.Der.Koenig.die.Witwe.und.Rick.GERMAN.DUBBED.DL.1080p.WebHD.x264-TVP

The.Walking.Dead.S08E07.Fuer.Danach.und.Rick.GERMAN.DUBBED.DL.1080p.WebHD.x264-TVP

The.Walking.Dead.S08E08.Kampf.um.die.Zukunft.GERMAN.DUBBED.DL.1080p.WebHD.x264-TVP

The.Walking.Dead.S08E09.Ehre.GERMAN.DUBBED.DL.1080p.WebHD.x264-TVP

The.Walking.Dead.S08E10.Botschaften.GERMAN.DUBBED.DL.1080p.WebHD.x264.REPACK-TVP 

The.Walking.Dead.S08E11.Flucht.nach.Hilltop.GERMAN.DUBBED.DL.1080p.WebHD.x264-TVP

The.Walking.Dead.S08E12.Der.Schluessel.zur.Zukunft.GERMAN.DUBBED.DL.1080p.WebHD.x264-TVP

The.Walking.Dead.S08E13.Der.Weg.der.Toten.GERMAN.DUBBED.DL.1080p.WebHD.x264-TVP

The.Walking.Dead.S08E14.Ich.sterbe.nicht.GERMAN.DUBBED.DL.1080p.WebHD.x264-TVP

The.Walking.Dead.S08E15.Die.rechte.Hand.GERMAN.DUBBED.DL.1080p.WebHD.x264-TVP

The.Walking.Dead.S08E16.Zorn.GERMAN.DUBBED.DL.1080p.WebHD.x264-TVP NEU



General

Complete name                            : The.Walking.Dead.S08E01.Erster.Kampf.GERMAN.DUBBED.DL.1080p.WebHD.x264-TVP\tvp-twd-s08e01-1080p.mkv
Format                                   : Matroska
Format version                           : Version 2
File size                                : 4.83 GiB
Duration                                 : 45mn 18s
Overall bit rate mode                    : Variable
Overall bit rate                         : 15.2 Mbps
Movie name                               : The.Walking.Dead.S08E01.Erster.Kampf.GERMAN.DUBBED.DL.1080p.WebHD.x264-TVP
Encoded date                             : UTC 2017-10-23 19:46:12
Writing application                      : mkvmerge v5.6.0 ('Kenya Kane') built on May 28 2012 06:47:39
Writing library                          : libebml v1.2.2 + libmatroska v1.3.0

Video
ID                                       : 1
Format                                   : AVC
Format/Info                              : Advanced Video Codec
Format profile                           : High@L4.0
Format settings, CABAC                   : Yes
Format settings, ReFrames                : 4 frames
Codec ID                                 : V_MPEG4/ISO/AVC
Duration                                 : 45mn 18s
Bit rate mode                            : Variable
Bit rate                                 : 14.4 Mbps
Maximum bit rate                         : 15.0 Mbps
Width                                    : 1 920 pixels
Height                                   : 1 080 pixels
Display aspect ratio                     : 16:9
Frame rate mode                          : Constant
Frame rate                               : 25.000 fps
Original frame rate                      : 23.976 fps
Color space                              : YUV
Chroma subsampling                       : 4:2:0
Bit depth                                : 8 bits
Scan type                                : Progressive
Bits/(Pixel*Frame)                       : 0.277
Stream size                              : 4.55 GiB (94%)
Title                                    : tvp-twd-s08e01-1080p
Language                                 : German
Default                                  : Yes
Forced                                   : Yes
Color primaries                          : BT.709
Transfer characteristics                 : BT.709
Matrix coefficients                      : BT.709

Audio #1
ID                                       : 2
Format                                   : AC-3
Format/Info                              : Audio Coding 3
Mode extension                           : CM (complete main)
Format settings, Endianness              : Big
Codec ID                                 : A_AC3
Duration                                 : 45mn 18s
Bit rate mode                            : Constant
Bit rate                                 : 192 Kbps
Channel(s)                               : 2 channels
Channel positions                        : Front: L R
Sampling rate                            : 48.0 KHz
Bit depth                                : 16 bits
Compression mode                         : Lossy
Stream size                              : 62.2 MiB (1%)
Language                                 : German
Default                                  : Yes
Forced                                   : Yes

Audio #2
ID                                       : 3
Format                                   : AC-3
Format/Info                              : Audio Coding 3
Mode extension                           : CM (complete main)
Format settings, Endianness              : Big
Codec ID                                 : A_AC3
Duration                                 : 45mn 18s
Bit rate mode                            : Constant
Bit rate                                 : 384 Kbps
Channel(s)                               : 6 channels
Channel positions                        : Front: L C R, Side: L R, LFE
Sampling rate                            : 48.0 KHz
Bit depth                                : 16 bits
Compression mode                         : Lossy
Stream size                              : 124 MiB (3%)
Language                                 : English
Default                                  : No
Forced                                   : No



Download:
Share-Online.biz Share-Online.bizShare-Online.bizShare-Online.biz |
 

Kommentare

  1. Geschrieben am 27. March 2018, 21:00 Uhr von k85 · #

    Bei S08E10 ist die Tonspur nicht mit dem Bild syncron. Wäre super wenn ihr ein Update machen könntet. Thx

    / Welche Tonspur?
  2. Geschrieben am 28. March 2018, 23:22 Uhr von k85 · #

    Bei ca. 15:33 auf der deutschen (Deutsch AC3 5.1)

    / also jetzt nur an dieser einen Stelle? Oder ab dieser Stelle?
  3. Geschrieben am 29. March 2018, 19:09 Uhr von phender · #

    Der Ton ist soweit ich gesehen habe ab dieser Stelle asynchron. Bin mehrmals vor- und zurückgesprungen und er ist async geblieben.