DNS SERVER AENDERNum der staatlichen Zensur zu umgehen. Sollten wir von eurem Provider geseprrt werden, nutzt den TOR BROWSER oder ändert euren DNS SERVER.

Filmwünsche können bei uns im Forum abgegeben werden

Wir Speichern Nicht




 
 
 
Top Releases
Peter.Hase.2018.German.DTS.D...
Peter.Hase.2018.German.DTS.D...
Peter.Hase.2018.MULTI.COMPLE...
Battle.Of.The.Sexes.2017.MUL...
Tomb.Raider.2018.German.DTS....
Tomb.Raider.2018.German.DTS....
A.Quiet.Place.2018.COMPLETE....
The.Equalizer.2014.COMPLETE....
A.Quiet.Place.2018.German.DL...
A.Quiet.Place.2018.German.DL...

Cinedubs
Die.Frau.die.vorausgeht.2017...
Die.Frau.die.vorausgeht.2017...
Super.Troopers.2.2018.German...
Thoroughbreds.2017.German.AC...
Thoroughbreds.2017.German.AC...
Vom.Ende.einer.Geschichte.20...
Vom.Ende.einer.Geschichte.20...
I.Feel.Pretty.2018.German.AC...
I.Feel.Pretty.2018.German.AC...
Wahrheit.oder.Pflicht.UNCUT....

Neuerscheinungen 2017-18
How.It.Ends.2018.German.DL.1...
Der.Glueckspilz.1966.German....
Der.Glueckspilz.1966.German....
Helene Fischer.Live.Die Aren...
Die.Trapp-Familie.1956.Die.T...
Der.Zerstreute.1970.German.1...
Der.Zerstreute.1970.German.7...
Avengers.Grimm.2.Time.Wars.2...
Avengers.Grimm.2.Time.Wars.2...
Bring.mir.den.Kopf.von.Alfre...

XXX
Bombshell.Bottoms.2.XXX.720p...
KarupsOW.18.07.03.Mindi.Mink...
KarupsHA.18.07.04.Jessi.June...
NewSensations.18.07.04.Lena....
PornMegaLoad.18.07.03.Paola....
PornMegaLoad.18.07.03.Micky....
Daddy.Loves.My.Big.Tits.2.XX...
Hot.Russian.Candy.2.XXX.1080...
My.Stepsisters.Tight.Pussy.X...
Russian.Institute.Punishment...
The.Innocence.Of.Youth.5.XXX...
My.Sexy.Kittens.55.XXX.720P....
TeenCurves.18.07.04.Skylar.S...
FantasyMassage.18.07.04.Merc...
MommyBlowsBest.18.07.04.Kris...
ATKGirlfriends.18.07.04.Emil...
ClubSeventeen.18.07.04.Kamil...
ClubSeventeen.18.07.04.Peach...
GloryHoleSecrets.18.07.04.So...
JaysPOV.18.07.03.Joseline.Ke...

3D
Ready.Player.One.2018.3D.HOU...
Ready.Player.One.2018.3D.HSB...
Ready.Player.One.3D.2018.MUL...
Black.Panther.3D.2018.MULTI....
Black.Panther.3D.HOU.2018.Ge...
Black.Panther.3D.HSBS.2018.G...
Best.of.3D.vol.04.-.06.GERMA...
Tomb.Raider.2018.3D.HOU.Germ...
Tomb.Raider.2018.3D.HSBS.Ger...
Tomb.Raider.2018.3D.COMPLETE...
Zombies.Ueberlebe.die.Untote...
Der.Dschungel.Der.Zauber.ein...
Penthouse.Presents.Sexy.Sing...
The.LEGO.Ninjago.Movie.3D.20...
Zombies.Ueberlebe.die.Untote...

Old_Stuff
Meine.liebe.Rabenmutter.germ...
Da.Vincis.Demons.S01.Complet...
Eragon.Das.Vermaechtnis.der....
Adele.und.das.Geheimnis.des....
Die.fabelhafte.Welt.der.Amel...
Haus.des.Geldes.S01.German.M...
How.I.Met.Your.Mother.S01.Ge...
The.Dark.Knight.Rises.2012.M...
Weissensee.S03.2015.GERMAN.C...
Weissensee.S01+S02.2010.GERM...
Die.Unglaublichen.-.The.Incr...
Der.grosse.Trick.1978.German...
Sully.2016.MULTi.COMPLETE.BL...
Tremors.3.Die.neue.Brut.2001...
Die.Indianer.von.Cleveland.2...

Filme
Der.Glueckspilz.1966.German....
Helden.der.Propaganda.Sportl...
Emsland.Power.-.Von.null.auf...
Gotham.S04.GERMAN.720p.HDTV....
Supergirl.S03.GERMAN.720p.HD...
The.Americans.2013.S05.GERMA...
The.Flash.2014.S04.GERMAN.72...
Marvels.Runaways.S01.COMPLET...
Marvels.Runaways.S01.COMPLET...
Six.S02.German.DD+51.DL.1080...
Six.S02.German.DD+51.DL.720p...
Homeland.S07.GERMAN.DUBBED.7...
Die.Jagd.1981.German.1080p.W...
Der.Effekt.des.Wassers.2016....
Doctor.Thorne.S01D01-2.MULTi...
Schwarzwaelder.Kirsch.1958.G...
Die.drei.Musketiere.The.Thre...
Ein.Wiedersehen.mit.Kenia.GE...
Geheimnisvolle.Orte.Der.Temp...
Die.Meute.der.Erben.2001.GER...
Spaceballs.1987.German.DUBBE...
7.Below.Haus.der.dunklen.See...
Martial.Law.III.Toedliches.K...
Martial.Law.III.Toedliches.K...

 
 
American.Horror.Story.S07.GERMAN.DUBBED.DL.720p.WebHD.x264-TVP
Jahr: 2017
Genre: Drama | Horror | Thriller
Sprache: Deutsch AC3 | Englisch AC3
Laufzeit: 46min je Folge
Bitrate: 4100 Kbps
Format: MKV
Größe: 1,6 GB je Folge
Release:

Beschreibung:

Die Anthologieserie „American Horror Story“ erzählt von Staffel zu Staffel verschiedene, in sich abgeschlossene Geschichten, die sich mit unterschiedlichen Arten von Horror beschäftigen. Während jedes Jahr die Thematik sowie das Setting und viele Darsteller gewechselt werden, kehren einige Schauspieler mehrmals in unterschiedlichen Rollen zur Serie zurück. ​

 

enthaltene Folgen:

American.Horror.Story.S07E01.Wahlabend.GERMAN.DUBBED.DL.720p.WebHD.x264-TVP

American.Horror.Story.S07E02.Hab.keine.Angst.vor.der.Dunkelheit.GERMAN.DUBBED.DL.720p.WebHD.x264-TVP

American.Horror.Story.S07E03.Unsere.hoellischen.Nachbarn.GERMAN.DUBBED.DL.720p.WebHD.x264-TVP

American.Horror.Story.S07E04.9.November.GERMAN.DUBBED.DL.720p.WebHD.x264-TVP

American.Horror.Story.S07E05.Loecher.GERMAN.DUBBED.DL.720p.WebHD.x264-TVP

American.Horror.Story.S07E06.Wahlkampf.im.Mittleren.Westen.GERMAN.DUBBED.DL.720p.WebHD.x264-TVP

American.Horror.Story.S07E07.Valerie.Solanas.starb.fuer.deine.Suenden.Drecksack.GERMAN.DUBBED.DL.720p.WebHD.x264-TVP

American.Horror.Story.S07E08.Winter.unseres.Missvergnuegens.GERMAN.DUBBED.DL.720p.WebHD.x264-TVP

American.Horror.Story.S07E09.Drink.the.Kool.Aid.GERMAN.DUBBED.DL.720p.WebHD.x264-TVP

American.Horror.Story.S07E10.Charles.Manson.in.Charge.GERMAN.DUBBED.DL.720p.WebHD.x264-TVP

American.Horror.Story.S07E11.Great.Again.GERMAN.DUBBED.DL.720p.WebHD.x264-TVP NEU



General
Complete name                            : American.Horror.Story.S07E01.Wahlabend.GERMAN.DUBBED.DL.720p.WebHD.x264-TVP\tvp-americanhorror-s07e01-720p.mkv
Format                                   : Matroska
Format version                           : Version 4 / Version 2
File size                                : 1.55 GiB
Duration                                 : 46mn 36s
Overall bit rate                         : 4 775 Kbps
Movie name                               : American.Horror.Story.S07E01.Wahlabend.GERMAN.DUBBED.DL.720p.WebHD.x264-TVP
Encoded date                             : UTC 2017-11-09 21:34:55
Writing application                      : mkvmerge v8.5.2 ('Crosses') 64bit
Writing library                          : libebml v1.3.3 + libmatroska v1.4.4
DURATION                                 : 00:46:36.128000000
NUMBER_OF_FRAMES                         : 87379
NUMBER_OF_BYTES                          : 134214144
_STATISTICS_WRITING_APP                  : mkvmerge v8.5.2 ('Crosses') 64bit
_STATISTICS_WRITING_DATE_UTC             : 2017-11-09 21:34:55
_STATISTICS_TAGS                         : BPS DURATION NUMBER_OF_FRAMES NUMBER_OF_BYTES

Video
ID                                       : 1
Format                                   : AVC
Format/Info                              : Advanced Video Codec
Format profile                           : High@L3.1
Format settings, CABAC                   : No
Format settings, ReFrames                : 2 frames
Codec ID                                 : V_MPEG4/ISO/AVC
Duration                                 : 46mn 36s
Bit rate                                 : 4 104 Kbps
Width                                    : 1 280 pixels
Height                                   : 718 pixels
Display aspect ratio                     : 16:9
Frame rate mode                          : Constant
Frame rate                               : 25.000 fps
Color space                              : YUV
Chroma subsampling                       : 4:2:0
Bit depth                                : 8 bits
Scan type                                : Progressive
Bits/(Pixel*Frame)                       : 0.179
Stream size                              : 1.34 GiB (86%)
Title                                    : tvp-americanhorror-s07e01-720p
Language                                 : German
Default                                  : Yes
Forced                                   : Yes
Color primaries                          : BT.709
Transfer characteristics                 : BT.709
Matrix coefficients                      : BT.709

Audio #1
ID                                       : 2
Format                                   : AC-3
Format/Info                              : Audio Coding 3
Mode extension                           : CM (complete main)
Format settings, Endianness              : Big
Codec ID                                 : A_AC3
Duration                                 : 46mn 36s
Bit rate mode                            : Constant
Bit rate                                 : 192 Kbps
Channel(s)                               : 2 channels
Channel positions                        : Front: L R
Sampling rate                            : 48.0 KHz
Bit depth                                : 16 bits
Compression mode                         : Lossy
Stream size                              : 64.0 MiB (4%)
Language                                 : German
Default                                  : Yes
Forced                                   : Yes

Audio #2
ID                                       : 3
Format                                   : AC-3
Format/Info                              : Audio Coding 3
Mode extension                           : CM (complete main)
Format settings, Endianness              : Big
Codec ID                                 : A_AC3
Duration                                 : 46mn 36s
Bit rate mode                            : Constant
Bit rate                                 : 384 Kbps
Channel(s)                               : 6 channels
Channel positions                        : Front: L C R, Side: L R, LFE
Sampling rate                            : 48.0 KHz
Bit depth                                : 16 bits
Compression mode                         : Lossy
Stream size                              : 128 MiB (8%)
Language                                 : English
Default                                  : No
Forced                                   : No



Download:
Share-Online.biz Share-Online.bizShare-Online.bizShare-Online.biz | Rapidgator.net Rapidgator.netRapidgator.netRapidgator.net
 

Kommentare