Filmwünsche können bei uns im Forum abgegeben werden

Wir Speichern Nicht




 
 
 
Top Releases
Zwischen.zwei.Leben.The.Moun...
Koerper.und.Seele.2017.Germa...
Koerper.und.Seele.2017.Germa...
Sing.2016.German.DL.2160p.UH...
Der.grosse.Gatsby.The.Great....
Pacific.Rim.2013.COMPLETE.UH...
The.Girl.on.the.Train.2016.D...
Sweet.Virginia.2017.MULTI.CO...
Sweet.Virginia.2017.German.D...
American.Made.2017.MULTi.COM...

Cinedubs
Blade.Runner.2049.3D.HSBS.Ge...
Blade.Runner.2049.GERMAN.DL....
Blade.Runner.2049.3D.HOU.Ger...
Thor.Tag.der.Entscheidung.20...
Thor.Tag.der.Entscheidung.20...
Blade.Runner.2049.2017.Germa...
Jigsaw.2017.German.AC3D.DL.7...
Jigsaw.2017.German.AC3D.DL.1...
The.LEGO.Ninjago.Movie.Germa...
The.LEGO.Ninjago.Movie.Germa...

Neuerscheinungen 2017-18
Hereinspaziert.2017.DUAL.COM...
Hampstead.Park.Aussicht.auf....
Hampstead.Park.Aussicht.auf....
Hereinspaziert.2017.German.7...
Amnesiac.2015.German.720p.Bl...
Blade.Runner.2049.German.DL....
Blade.Runner.2049.GERMAN.DL....
Blade.Runner.2049.GERMAN.DL....
Amnesiac.2015.German.DL.1080...
Pfad.der.Rache.2017.German.D...

XXX
MommysGirl.18.01.16.Bridgett...
Lesbea.18.01.14.Anie.Darling...
LukeHardyXXX.17.12.27.Stella...
JapanHDV.18.01.13.Noriko.Aot...
MySistersHotFriend.18.01.16....
LoveHerFeet.17.10.06.Alexis....
LethalHardcore.My.Stepsister...
MariskaX.18.01.14.Angelique....
LoveHerFeet.17.12.22.Brenna....
LoveHerFeet.17.09.29.Nina.No...
KinkyFamily.18.01.13.Kenzie....
LoveHerFeet.17.09.08.Sidney....
LetsTryAnal.18.01.15.Evelin....
MyFriendsHotGirl.18.01.13.Kl...
LoveHerFeet.17.09.22.Chloe.S...
Joymii.18.01.13.Tina.Kay.Fir...
MariskaX.18.01.15.Alessa.Sav...
MonsterCurves.18.01.16.Aniss...
Lustery.E85.Mary.And.Ann.Lat...
JeshByJesh.18.01.13.Victoria...

3D
Geostorm.3D.2017.HSBS.German...
Geostorm.3D.2017.HOU.German....
Geostorm.3D.2017.multi.compl...
Cars.3.3D.2017.multi.complet...
Cars.3.Evolution.3D.HSBS.201...
Cars.3.Evolution.3D.HOU.2017...
Ares.2016.3D.HOU.German.1080...
Guardians.Of.The.Galaxy.Vol....
Ares.3D.2016.German.720p.Blu...
Ares.3D.2016.German.1080p.Bl...
El.Americano.Kleiner.Superhe...
Best.of.3D.vol.01.-.03.GERMA...
Pete.Smalls.is.Dead.3D.2010....
Baymax.Riesiges.Robowabohu.2...
Bigfoot.Junior.3D.2017.GERMA...

Old_Stuff
American.Sniper.2014.MULTi.C...
Hana-bi.Feuerblume.1997.Germ...
Memphis.Belle.1990.German.DL...
Im.Schatten.des.Mondes.Germa...
Tomb.Raider.2001.DUAL.COMPLE...
Tomb.Raider.Die.Wiege.des.Le...
Party.Animals.3.German.AC3.7...
The.Rocky.Horror.Picture.Sho...
Die.Fliege.1986.German.DTS.1...
Mimic.2.2001.German.DD5.1D.D...
The.Tournament.UNCUT.2009.Ge...
Dr.House.S08.German.720p.Blu...
Dr.House.S07.German.720p.Blu...
Dr.House.S06.German.720p.Blu...
Dr.House.S05.German.720p.Blu...

Filme
Phantasm.IV.GERMAN.1998.DL.1...
Phantasm.IV.GERMAN.1998.DL.7...
Lebanon.Toedliche.Mission.20...
Spawn.1997.German.DL.1080p.B...
Die.Kammer.-.The.Chamber.199...
I.Am.David.2003.German.AC3D....
Grifters.1990.German.DL.AC3D...
Daenische.Delikatessen.2003....
Jakob.der.Luegner.aka.Jakob....
Perfect.Blue.1997.German.AC3...
Verfluchtes.Amsterdam.Uncut....
Verfluchtes.Amsterdam.Uncut....
Verfluchtes.Amsterdam.Uncut....
Der.versteinerte.Wald.-.The....
The.Astronauts.Wife.1999.Ger...
The.Big.Bang.Theory.S11.Germ...
The.Big.Bang.Theory.S11.Germ...
Star.Trek.Discovery.S01.Germ...
Supernatural.S12.GERMAN.DUBB...
Supernatural.S12.GERMAN.DUBB...
The.Expendables.THEATRICAL.2...
The.Expendables.DC.2010.Germ...
Born.to.Be.Wild.1995.German....
Shriek.Schrei.wenn.du.weisst...

 
 
American.Horror.Story.S07.GERMAN.DUBBED.DL.1080p.WebHD.x264-TVP
Jahr: 2017
Genre: Drama | Horror | Thriller
Sprache: Deutsch AC3 | Englisch AC3
Laufzeit: 46min je Folge
Bitrate: 5100 Kbps
Format: MKV
Größe: 1,9 GB je Folge
Release:

Beschreibung:

Die Anthologieserie „American Horror Story“ erzählt von Staffel zu Staffel verschiedene, in sich abgeschlossene Geschichten, die sich mit unterschiedlichen Arten von Horror beschäftigen. Während jedes Jahr die Thematik sowie das Setting und viele Darsteller gewechselt werden, kehren einige Schauspieler mehrmals in unterschiedlichen Rollen zur Serie zurück. ​

 

enthaltene Folgen:

American.Horror.Story.S07E01.Wahlabend.GERMAN.DUBBED.DL.1080p.WebHD.x264-TVP

American.Horror.Story.S07E02.Hab.keine.Angst.vor.der.Dunkelheit.GERMAN.DUBBED.DL.1080p.WebHD.x264-TVP

American.Horror.Story.S07E03.Unsere.hoellischen.Nachbarn.GERMAN.DUBBED.DL.1080p.WebHD.x264-TVP

American.Horror.Story.S07E04.9.November.GERMAN.DUBBED.DL.1080p.WebHD.x264-TVP

American.Horror.Story.S07E05.Loecher.GERMAN.DUBBED.DL.1080p.WebHD.x264-TVP

American.Horror.Story.S07E06.Wahlkampf.im.Mittleren.Westen.GERMAN.DUBBED.DL.1080p.WebHD.x264-TVP

American.Horror.Story.S07E07.Valerie.Solanas.starb.fuer.deine.Suenden.Drecksack.GERMAN.DUBBED.DL.1080p.WebHD.x264-TVP

American.Horror.Story.S07E08.Winter.unseres.Missvergnuegens.GERMAN.DUBBED.DL.1080p.WebHD.x264-TVP

American.Horror.Story.S07E09.Drink.the.Kool.Aid.GERMAN.DUBBED.DL.1080p.WebHD.x264-TVP

American.Horror.Story.S07E10.Charles.Manson.in.Charge.GERMAN.DUBBED.DL.1080p.WebHD.x264-TVP

American.Horror.Story.S07E11.Great.Again.GERMAN.DUBBED.DL.1080p.WebHD.x264-TVP NEU



General
Complete name                            : American.Horror.Story.S07E01.Wahlabend.GERMAN.DUBBED.DL.1080p.WebHD.x264-TVP\tvp-americanhorror-s07e01-1080p.mkv
Format                                   : Matroska
Format version                           : Version 2
File size                                : 1.91 GiB
Duration                                 : 46mn 36s
Overall bit rate                         : 5 878 Kbps
Movie name                               : American.Horror.Story.S07E01.Wahlabend.GERMAN.DUBBED.DL.1080p.WebHD.x264-TVP
Encoded date                             : UTC 2017-11-09 20:50:35
Writing application                      : mkvmerge v5.6.0 ('Kenya Kane') built on May 28 2012 06:47:39
Writing library                          : libebml v1.2.2 + libmatroska v1.3.0

Video
ID                                       : 1
Format                                   : AVC
Format/Info                              : Advanced Video Codec
Format profile                           : High@L4.0
Format settings, CABAC                   : Yes
Format settings, ReFrames                : 4 frames
Codec ID                                 : V_MPEG4/ISO/AVC
Duration                                 : 46mn 36s
Bit rate                                 : 5 185 Kbps
Width                                    : 1 916 pixels
Height                                   : 1 076 pixels
Display aspect ratio                     : 16:9
Original display aspect ratio            : 16:9
Frame rate mode                          : Constant
Frame rate                               : 25.000 fps
Color space                              : YUV
Chroma subsampling                       : 4:2:0
Bit depth                                : 8 bits
Scan type                                : Progressive
Bits/(Pixel*Frame)                       : 0.101
Stream size                              : 1.69 GiB (88%)
Title                                    : tvp-americanhorror-s07e01-1080p
Language                                 : German
Default                                  : Yes
Forced                                   : Yes
Color primaries                          : BT.709
Transfer characteristics                 : BT.709
Matrix coefficients                      : BT.709

Audio #1
ID                                       : 2
Format                                   : AC-3
Format/Info                              : Audio Coding 3
Mode extension                           : CM (complete main)
Format settings, Endianness              : Big
Codec ID                                 : A_AC3
Duration                                 : 46mn 36s
Bit rate mode                            : Constant
Bit rate                                 : 192 Kbps
Channel(s)                               : 2 channels
Channel positions                        : Front: L R
Sampling rate                            : 48.0 KHz
Bit depth                                : 16 bits
Compression mode                         : Lossy
Stream size                              : 64.0 MiB (3%)
Language                                 : German
Default                                  : Yes
Forced                                   : Yes

Audio #2
ID                                       : 3
Format                                   : AC-3
Format/Info                              : Audio Coding 3
Mode extension                           : CM (complete main)
Format settings, Endianness              : Big
Codec ID                                 : A_AC3
Duration                                 : 46mn 36s
Bit rate mode                            : Constant
Bit rate                                 : 384 Kbps
Channel(s)                               : 6 channels
Channel positions                        : Front: L C R, Side: L R, LFE
Sampling rate                            : 48.0 KHz
Bit depth                                : 16 bits
Compression mode                         : Lossy
Stream size                              : 128 MiB (7%)
Language                                 : English
Default                                  : No
Forced                                   : No



Download:
Share-Online.biz Share-Online.bizShare-Online.bizShare-Online.biz | Rapidgator.net Rapidgator.netRapidgator.netRapidgator.net
 

Kommentare

  1. Geschrieben am 17. December 2017, 15:00 Uhr von User1111111 · #

    Episode 6 lässt sich bei mir nicht entpacken.

    / copy and Paste die Meldung die RAR 5.x ausgibt. Was soll man mit so einer Nichtbeschreibung des Problems anfangen?
  2. Geschrieben am 13. January 2018, 14:46 Uhr von foobar · #

    S07E06 ist defekt und lässt sich nicht entpacken. Bitte neu hochladen

    / RAR 5.x nutzen
  3. Geschrieben am 13. January 2018, 20:46 Uhr von foobar · #

    ok, mit winrar 5.50 konnte ich entzippen. Danke für den Hinweis!