Filmwünsche können bei uns im Forum abgegeben werden

Wir Speichern Nicht




 
 
 
Top Releases
Dunkirk.2017.German.DL.1080p...
Dunkirk.2017.IMAX.German.DTS...
Dunkirk.2017.German.720p.Blu...
Dalida.2016.GERMAN.720p.BluR...
Dalida.2016.GERMAN.1080p.Blu...
Dalida.2016.DUAL.COMPLETE.BL...
Mein.fast.perfekter.Vater.Th...
Die.Tribute.von.Panem.Catchi...
The.Accountant.2016.German.D...
X.Men.Zukunft.ist.Vergangenh...

Cinedubs
Flatliners.2017.German.AC3MD...
Flatliners.2017.German.AC3MD...
Dunkirk.2017.IMAX.German.AC3...
Dunkirk.2017.IMAX.German.AC3...
Dunkirk.2017.IMAX.German.AC3...
Schneemann.German.DL.AC3.Dub...
ES.2017.German.DL.AC3.Dubbed...
Dunkirk.2017.German.AC3MD.DL...
The.Lego.Ninjago.Movie.2017....
The.Lego.Ninjago.Movie.2017....

Neuerscheinungen 2016-17
Escape.Room.2017.German.DL.1...
The.Holly.Kane.Experiment.20...
Iron.Man.2.4k.2010.multi.com...
Escape.Room.2017.German.DL.1...
Escape.Room.2017.German.720p...
Max.Agent.auf.vier.Pfoten.20...
Max.Agent.auf.vier.Pfoten.20...
Max.Agent.auf.vier.Pfoten.20...
Leatherface.2017.German.720p...
Leatherface.2017.German.DL.1...

XXX
RealAgent.17.10.01.Mia.Wants...
RealAgent.17.09.07.Ally.Bree...
RealAgent.17.09.07.Nestys.Le...
PremiumBukkake.17.09.20.Ria....
QuebecProductions.16.02.11.A...
RealAgent.17.09.15.Nikki.Wai...
QuebecProductions.16.02.26.S...
PrivateSociety.17.12.02.Melo...
RealAgent.17.09.22.Jessica.L...
PornMegaLoad.17.12.01.Sandra...
QuebecProductions.16.01.28.N...
QuebecProductions.16.01.22.C...
RealAgent.17.09.07.Empera.Ad...
QuebecProductions.16.02.25.A...
PrincessCum.17.11.28.Lily.Ad...
PornMegaLoad.17.12.02.Kaci.L...
PornMegaLoad.17.11.30.Mahoga...
PropertySex.17.12.01.Victori...
PublicAgent.17.12.01.Jessica...
RealAgent.17.09.10.Party.Les...

3D
Walhalla.Rising.3D.2009.Germ...
Spider.Man.Homecoming.3D.Ger...
Valerian.Die.Stadt.der.tause...
Valerian.Die.Stadt.der.tause...
Valerian.Die.Stadt.der.tause...
Valerian.Die.Stadt.der.tause...
Warcraft.The.Beginning.3D.HS...
Transformers.The.Last.Knight...
Warcraft.The.Beginning.3D.HO...
Die.Schneekoenigin.3.Feuer.u...
Die.Schneekoenigin.3.Feuer.u...
Terra.X.Dracula.-.Die.wahre....
Abenteuer.Safari.3D.Safari.P...
Die.Schneekoenigin.3.3D.2016...
Spider.Man.Homecoming.3D.201...

Old_Stuff
American.Sniper.2014.MULTi.C...
Hana-bi.Feuerblume.1997.Germ...
Memphis.Belle.1990.German.DL...
Im.Schatten.des.Mondes.Germa...
Tomb.Raider.2001.DUAL.COMPLE...
Tomb.Raider.Die.Wiege.des.Le...
Party.Animals.3.German.AC3.7...
The.Rocky.Horror.Picture.Sho...
Die.Fliege.1986.German.DTS.1...
Mimic.2.2001.German.DD5.1D.D...
The.Tournament.UNCUT.2009.Ge...
Dr.House.S08.German.720p.Blu...
Dr.House.S07.German.720p.Blu...
Dr.House.S06.German.720p.Blu...
Dr.House.S05.German.720p.Blu...

Musik
Remote.Galaxy.by.Flint.Juven...
Trondheim.Solistene.Souvenir...
The.Beatles.Sgt.Peppers.Lone...
The.Prometheus.Dolby.Atmos.E...
R.E.M.OUT.OF.TIME.25th.Anniv...
The.Rolling.Stones.GRRR.BR-A...
Mussorgsky.Bilder.einer.Auss...
Yes.-.The.Yes.Album.Bluray-A...
Carlos.Heredia.Gypsy.Flamenc...
SPES.2014.complete.Bluray.un...
Carlos.Santana.Collection.19...
Pink.Floyd.The.Endless.River...
The.Hyperion.Romantic.Piano....
Putumayo.113.CD.Flac.lossles...
UFO.Let.It.Roll.Limited.Edit...

Filme
Starship.Troopers.1997.Germa...
Colors.Farben.der.Gewalt.UNR...
Das.Privatleben.des.Sherlock...
Twin.Dragons.1992.German.AC3...
Strike.One.2014.German.AC3.D...
The.Good.Fight.S01.GERMAN.DU...
Game.of.thrones.s07d01.2017....
187.Eine.toedliche.Zahl.1997...
Gib.dem.Affen.Zucker.1981.RE...
Gib.dem.Affen.Zucker.1981.RE...
Good.Behavior.S02.GERMAN.720...
Kevin.Can.Wait.S02.German.10...
Kevin.Can.Wait.S02.German.72...
Blindspot.S02.COMPLETE.Germa...
The.Librarians.S03.COMPLETE....
Outlander.S03.German.DD51.DL...
Outlander.S03.German.DD51.DL...
Manhunt.Unabomber.S01.German...
Manhunt.Unabomber.S01.German...
The.Walking.Dead.S08.GERMAN....
Zebo.der.Dritte.aus.der.Ster...
Mimzy.Meine.Freundin.aus.der...
Supernatural.S11.COMPLETE.Ge...
No.Problem.2010.German.1080p...

 
 
Valerian.Die.Stadt.der.tausend.Planeten.2017.German.DTS.DL.1080p.BluRay.x264-Pate
Jahr: 2017
Genre: Action,Adventure,Fantasy
Sprache: Deutsch DTS | Englisch DTS
Laufzeit: 2h 17mn
Bitrate: 14.7 Mbps
Format: MKV
Größe: 14.1 GiB
Release:

Beschreibung:

Im 28. Jahrhundert sorgen der Spezialagent Valerian (Dane DeHaan) und seine neue Partnerin Laureline (Cara Delevingne) für Recht und Ordnung in der gesamten Galaxis. Ihr neuester Auftrag, den sie von ihrem raubeinigen Kommandanten (Clive Owen) bekommen, führt die beiden ungleichen Gesetzeshüter in die gigantische Metropole Alpha, in der unzählige unterschiedliche Spezies aus verschiedensten Teilen des Universums zusammenleben. Mit der Zeit haben sich die Bewohner der Stadt so weit einander angenähert, dass sie all ihr Wissen vereint haben und dies zum Vorteil für alle nutzen. Allerdings kann sich längst nicht jeder mit den herrschenden Verhältnissen anfreunden. Einige schmieden insgeheim Pläne, die nicht nur Alpha, sondern die gesamte Galaxis ins Chaos stürzen könnten. Valerian und Laureline setzen daher alles daran, um das drohende Unheil abzuwenden.



Complete name                            : pate-valer.108.mkv
Format                                   : Matroska
Format version                           : Version 4 / Version 2
File size                                : 14.1 GiB
Duration                                 : 2h 17mn
Overall bit rate                         : 14.7 Mbps
Encoded date                             : UTC 2017-11-23 15:04:46
Writing application                      : mkvmerge v8.3.0 ('Over the Horizon') 64bit
Writing library                          : libebml v1.3.1 + libmatroska v1.4.2
DURATION                                 : 02:08:43.424000000
NUMBER_OF_FRAMES                         : 2085
NUMBER_OF_BYTES                          : 57682
_STATISTICS_WRITING_APP                  : mkvmerge v8.3.0 ('Over the Horizon') 64bit
_STATISTICS_WRITING_DATE_UTC             : 2017-11-23 15:04:46
_STATISTICS_TAGS                         : BPS DURATION NUMBER_OF_FRAMES NUMBER_OF_BYTES

Video
ID                                       : 1
Format                                   : AVC
Format/Info                              : Advanced Video Codec
Format profile                           : High@L4.1
Format settings, CABAC                   : Yes
Format settings, ReFrames                : 5 frames
Codec ID                                 : V_MPEG4/ISO/AVC
Duration                                 : 2h 17mn
Bit rate                                 : 11.4 Mbps
Width                                    : 1 920 pixels
Height                                   : 804 pixels
Display aspect ratio                     : 2.40:1
Frame rate mode                          : Constant
Frame rate                               : 23.976 fps
Color space                              : YUV
Chroma subsampling                       : 4:2:0
Bit depth                                : 8 bits
Scan type                                : Progressive
Bits/(Pixel*Frame)                       : 0.309
Stream size                              : 10.9 GiB (78%)
Writing library                          : x264 core 152 r2851 ba24899
Encoding settings                        : cabac=1 / ref=5 / deblock=1:-3:-3 / analyse=0x3:0x113 / me=umh / subme=9 / psy=1 / psy_rd=1.00:0.15 / mixed_ref=1 / me_range=16 / chroma_me=1 / trellis=2 / 8x8dct=1 / cqm=0 / deadzone=21,11 / fast_pskip=0 / chroma_qp_offset=-3 / threads=80 / lookahead_threads=6 / sliced_threads=0 / nr=0 / decimate=1 / interlaced=0 / bluray_compat=0 / constrained_intra=0 / bframes=5 / b_pyramid=2 / b_adapt=2 / b_bias=0 / direct=3 / weightb=1 / open_gop=0 / weightp=2 / keyint=250 / keyint_min=23 / scenecut=40 / intra_refresh=0 / rc_lookahead=40 / rc=crf / mbtree=1 / crf=16.0 / qcomp=0.60 / qpmin=10 / qpmax=69 / qpstep=4 / ip_ratio=1.40 / aq=1:1.00
Language                                 : English
Default                                  : Yes
Forced                                   : No
DURATION                                 : 02:17:04.300000000
NUMBER_OF_FRAMES                         : 197186
NUMBER_OF_BYTES                          : 12052829026
_STATISTICS_WRITING_APP                  : mkvmerge v8.3.0 ('Over the Horizon') 64bit
_STATISTICS_WRITING_DATE_UTC             : 2017-11-23 15:04:46
_STATISTICS_TAGS                         : BPS DURATION NUMBER_OF_FRAMES NUMBER_OF_BYTES

Audio #1
ID                                       : 2
Format                                   : DTS
Format/Info                              : Digital Theater Systems
Mode                                     : 16
Format settings, Endianness              : Big
Codec ID                                 : A_DTS
Duration                                 : 2h 17mn
Bit rate mode                            : Constant
Bit rate                                 : 1 509 Kbps
Channel(s)                               : 6 channels
Channel positions                        : Front: L C R, Side: L R, LFE
Sampling rate                            : 48.0 KHz
Bit depth                                : 24 bits
Compression mode                         : Lossy
Stream size                              : 1.44 GiB (10%)
Language                                 : German
Default                                  : Yes
Forced                                   : Yes

Audio #2
ID                                       : 3
Format                                   : DTS
Format/Info                              : Digital Theater Systems
Mode                                     : 16
Format settings, Endianness              : Big
Codec ID                                 : A_DTS
Duration                                 : 2h 17mn
Bit rate mode                            : Constant
Bit rate                                 : 1 509 Kbps
Channel(s)                               : 6 channels
Channel positions                        : Front: L C R, Side: L R, LFE
Sampling rate                            : 48.0 KHz
Bit depth                                : 24 bits
Compression mode                         : Lossy
Stream size                              : 1.44 GiB (10%)
Language                                 : English
Default                                  : No
Forced                                   : No

Text #1
ID                                       : 4
Format                                   : UTF-8
Codec ID                                 : S_TEXT/UTF8
Codec ID/Info                            : UTF-8 Plain Text
Title                                    : forced
Language                                 : German
Default                                  : Yes
Forced                                   : Yes

Text #2
ID                                       : 5
Format                                   : UTF-8
Codec ID                                 : S_TEXT/UTF8
Codec ID/Info                            : UTF-8 Plain Text
Title                                    : forced
Language                                 : English
Default                                  : No
Forced                                   : No

Text #3
ID                                       : 6
Format                                   : UTF-8
Codec ID                                 : S_TEXT/UTF8
Codec ID/Info                            : UTF-8 Plain Text
Title                                    : regular
Language                                 : German
Default                                  : No
Forced                                   : No

Text #4
ID                                       : 7
Format                                   : UTF-8
Codec ID                                 : S_TEXT/UTF8
Codec ID/Info                            : UTF-8 Plain Text
Title                                    : regular sdh
Language                                 : English
Default                                  : No
Forced                                   : No

Menu


Download:
Share Online Share OnlineShare OnlineShare Online
 

Kommentare