Filmwünsche können bei uns im Forum abgegeben werden

Wir Speichern Nicht




 
 
 
Top Releases
Dunkirk.2017.German.720p.Blu...
Dalida.2016.GERMAN.720p.BluR...
Dalida.2016.GERMAN.1080p.Blu...
Dalida.2016.DUAL.COMPLETE.BL...
Mein.fast.perfekter.Vater.Th...
Die.Tribute.von.Panem.Catchi...
The.Accountant.2016.German.D...
X.Men.Zukunft.ist.Vergangenh...
Promised.Land.2012.German.DL...
Oblivion.2013.German.DL.1080...

Cinedubs
Flatliners.2017.German.AC3MD...
Flatliners.2017.German.AC3MD...
Dunkirk.2017.IMAX.German.AC3...
Dunkirk.2017.IMAX.German.AC3...
Dunkirk.2017.IMAX.German.AC3...
Schneemann.German.DL.AC3.Dub...
ES.2017.German.DL.AC3.Dubbed...
Dunkirk.2017.German.AC3MD.DL...
The.Lego.Ninjago.Movie.2017....
The.Lego.Ninjago.Movie.2017....

Neuerscheinungen 2016-17
The.Holly.Kane.Experiment.20...
Iron.Man.2.4k.2010.multi.com...
Escape.Room.2017.German.DL.1...
Escape.Room.2017.German.720p...
Max.Agent.auf.vier.Pfoten.20...
Max.Agent.auf.vier.Pfoten.20...
Max.Agent.auf.vier.Pfoten.20...
Leatherface.2017.German.720p...
Leatherface.2017.German.DL.1...
Deep.Purple.From.Here.to.inF...

XXX
RealAgent.17.10.01.Mia.Wants...
RealAgent.17.09.07.Ally.Bree...
RealAgent.17.09.07.Nestys.Le...
PremiumBukkake.17.09.20.Ria....
QuebecProductions.16.02.11.A...
RealAgent.17.09.15.Nikki.Wai...
QuebecProductions.16.02.26.S...
PrivateSociety.17.12.02.Melo...
RealAgent.17.09.22.Jessica.L...
PornMegaLoad.17.12.01.Sandra...
QuebecProductions.16.01.28.N...
QuebecProductions.16.01.22.C...
RealAgent.17.09.07.Empera.Ad...
QuebecProductions.16.02.25.A...
PrincessCum.17.11.28.Lily.Ad...
PornMegaLoad.17.12.02.Kaci.L...
PornMegaLoad.17.11.30.Mahoga...
PropertySex.17.12.01.Victori...
PublicAgent.17.12.01.Jessica...
RealAgent.17.09.10.Party.Les...

3D
Walhalla.Rising.3D.2009.Germ...
Spider.Man.Homecoming.3D.Ger...
Valerian.Die.Stadt.der.tause...
Valerian.Die.Stadt.der.tause...
Valerian.Die.Stadt.der.tause...
Valerian.Die.Stadt.der.tause...
Warcraft.The.Beginning.3D.HS...
Transformers.The.Last.Knight...
Warcraft.The.Beginning.3D.HO...
Die.Schneekoenigin.3.Feuer.u...
Die.Schneekoenigin.3.Feuer.u...
Terra.X.Dracula.-.Die.wahre....
Abenteuer.Safari.3D.Safari.P...
Die.Schneekoenigin.3.3D.2016...
Spider.Man.Homecoming.3D.201...

Old_Stuff
American.Sniper.2014.MULTi.C...
Hana-bi.Feuerblume.1997.Germ...
Memphis.Belle.1990.German.DL...
Im.Schatten.des.Mondes.Germa...
Tomb.Raider.2001.DUAL.COMPLE...
Tomb.Raider.Die.Wiege.des.Le...
Party.Animals.3.German.AC3.7...
The.Rocky.Horror.Picture.Sho...
Die.Fliege.1986.German.DTS.1...
Mimic.2.2001.German.DD5.1D.D...
The.Tournament.UNCUT.2009.Ge...
Dr.House.S08.German.720p.Blu...
Dr.House.S07.German.720p.Blu...
Dr.House.S06.German.720p.Blu...
Dr.House.S05.German.720p.Blu...

Musik
Remote.Galaxy.by.Flint.Juven...
Trondheim.Solistene.Souvenir...
The.Beatles.Sgt.Peppers.Lone...
The.Prometheus.Dolby.Atmos.E...
R.E.M.OUT.OF.TIME.25th.Anniv...
The.Rolling.Stones.GRRR.BR-A...
Mussorgsky.Bilder.einer.Auss...
Yes.-.The.Yes.Album.Bluray-A...
Carlos.Heredia.Gypsy.Flamenc...
SPES.2014.complete.Bluray.un...
Carlos.Santana.Collection.19...
Pink.Floyd.The.Endless.River...
The.Hyperion.Romantic.Piano....
Putumayo.113.CD.Flac.lossles...
UFO.Let.It.Roll.Limited.Edit...

Filme
Starship.Troopers.1997.Germa...
Colors.Farben.der.Gewalt.UNR...
Das.Privatleben.des.Sherlock...
Twin.Dragons.1992.German.AC3...
Strike.One.2014.German.AC3.D...
The.Good.Fight.S01.GERMAN.DU...
Game.of.thrones.s07d01.2017....
187.Eine.toedliche.Zahl.1997...
Gib.dem.Affen.Zucker.1981.RE...
Gib.dem.Affen.Zucker.1981.RE...
Good.Behavior.S02.GERMAN.720...
Kevin.Can.Wait.S02.German.10...
Kevin.Can.Wait.S02.German.72...
Blindspot.S02.COMPLETE.Germa...
The.Librarians.S03.COMPLETE....
Outlander.S03.German.DD51.DL...
Outlander.S03.German.DD51.DL...
Manhunt.Unabomber.S01.German...
Manhunt.Unabomber.S01.German...
The.Walking.Dead.S08.GERMAN....
Zebo.der.Dritte.aus.der.Ster...
Mimzy.Meine.Freundin.aus.der...
Supernatural.S11.COMPLETE.Ge...
No.Problem.2010.German.1080p...

 
 
Transformers.The.Last.Knight.2017.3D.HSBS.German.DTS.1080p.BluRay.x264.REPACK-LeetHD
Jahr: 2017
Genre: Abenteuer, Action, Science Fiction
Sprache: Deutsch AC3 | Englisch DTS
Laufzeit: 2h 34mn
Bitrate: 13.3 Mbps
Format: MKV
Größe: 14.4 GiB
Release:

Beschreibung:

Optimus Primes Suche nach seinem Schöpfer hat eine unerwartete Wendung genommen: Cybertron liegt in Trümmern. Um seine Heimat zu retten und neues Leben auf seinem Heimatplaneten zu ermöglichen, gibt es nur einen Ausweg: Unter 100 Trilliarden Planeten im Kosmos liegt ausgerechnet auf der Erde ein geheimnisvolles Artefakt aus der Vergangenheit verborgen, das die Roboterspezies vor dem endgültigen Untergang bewahren könnte. In einem Krieg zwischen zwei unvereinbaren Welten – Mensch gegen Maschine – kann es nur einen Überlebenden geben.



Complete name                            : lhd-tr5.hsbs-1080p.mkv
Format                                   : Matroska
Format version                           : Version 4 / Version 2
File size                                : 14.4 GiB
Duration                                 : 2h 34mn
Overall bit rate                         : 13.3 Mbps
Movie name                               : Transformers The Last Knight 3D HSBS
Encoded date                             : UTC 2017-11-26 15:53:39
Writing application                      : mkvmerge v9.7.1 ('Pandemonium') 64bit
Writing library                          : libebml v1.3.4 + libmatroska v1.4.5
DURATION                                 : 02:34:37.952000000
NUMBER_OF_FRAMES                         : 869808
NUMBER_OF_BYTES                          : 1750053696
_STATISTICS_WRITING_APP                  : mkvmerge v9.7.1 ('Pandemonium') 64bit
_STATISTICS_WRITING_DATE_UTC             : 2017-11-26 15:53:39
_STATISTICS_TAGS                         : BPS DURATION NUMBER_OF_FRAMES NUMBER_OF_BYTES

Video
ID                                       : 1
Format                                   : AVC
Format/Info                              : Advanced Video Codec
Format profile                           : High@L4.1
MultiView_Count                          : 2
MultiView_Layout                         : Side by Side (left eye first)
Format settings, CABAC                   : Yes
Format settings, ReFrames                : 4 frames
Codec ID                                 : V_MPEG4/ISO/AVC
Duration                                 : 2h 34mn
Bit rate                                 : 10.9 Mbps
Width                                    : 1 920 pixels
Height                                   : 1 008 pixels
Display aspect ratio                     : 16:9
Original display aspect ratio            : 1.905
Frame rate mode                          : Constant
Frame rate                               : 23.976 fps
Color space                              : YUV
Chroma subsampling                       : 4:2:0
Bit depth                                : 8 bits
Scan type                                : Progressive
Bits/(Pixel*Frame)                       : 0.235
Stream size                              : 11.8 GiB (82%)
Writing library                          : x264 core 148 r2744 b97ae06
Encoding settings                        : cabac=1 / ref=4 / deblock=1:0:0 / analyse=0x3:0x113 / me=hex / subme=8 / psy=1 / psy_rd=1.00:0.00 / mixed_ref=1 / me_range=16 / chroma_me=1 / trellis=2 / 8x8dct=1 / cqm=0 / deadzone=21,11 / fast_pskip=1 / chroma_qp_offset=-2 / threads=12 / lookahead_threads=2 / sliced_threads=0 / nr=0 / decimate=1 / interlaced=0 / bluray_compat=0 / constrained_intra=0 / bframes=3 / b_pyramid=2 / b_adapt=1 / b_bias=0 / direct=3 / weightb=1 / open_gop=0 / weightp=2 / keyint=250 / keyint_min=23 / scenecut=40 / intra_refresh=0 / rc_lookahead=50 / rc=crf / mbtree=1 / crf=17.0 / qcomp=0.60 / qpmin=0 / qpmax=69 / qpstep=4 / vbv_maxrate=62500 / vbv_bufsize=78125 / crf_max=0.0 / nal_hrd=none / filler=0 / frame-packing=3 / ip_ratio=1.40 / aq=1:1.00
Default                                  : Yes
Forced                                   : No
Matrix coefficients                      : BT.709

Audio #1
ID                                       : 2
Format                                   : DTS
Format/Info                              : Digital Theater Systems
Mode                                     : 16
Format settings, Endianness              : Big
Codec ID                                 : A_DTS
Duration                                 : 2h 34mn
Bit rate mode                            : Constant
Bit rate                                 : 1 509 Kbps
Channel(s)                               : 6 channels
Channel positions                        : Front: L C R, Side: L R, LFE
Sampling rate                            : 48.0 KHz
Bit depth                                : 24 bits
Compression mode                         : Lossy
Stream size                              : 1.63 GiB (11%)
Language                                 : German
Default                                  : No
Forced                                   : No

Audio #2
ID                                       : 3
Format                                   : AC-3
Format/Info                              : Audio Coding 3
Mode extension                           : CM (complete main)
Format settings, Endianness              : Big
Codec ID                                 : A_AC3
Duration                                 : 2h 34mn
Bit rate mode                            : Constant
Bit rate                                 : 640 Kbps
Channel(s)                               : 6 channels
Channel positions                        : Front: L C R, Side: L R, LFE
Sampling rate                            : 48.0 KHz
Bit depth                                : 16 bits
Compression mode                         : Lossy
Stream size                              : 708 MiB (5%)
Language                                 : German
Default                                  : Yes
Forced                                   : No

Text
ID                                       : 4
Format                                   : PGS
Muxing mode                              : zlib
Codec ID                                 : S_HDMV/PGS
Codec ID/Info                            : The same subtitle format used on BDs/HD-DVDs
Title                                    : German forced 3D
Language                                 : German
Default                                  : Yes
Forced                                   : Yes


Download:
Share Online Share OnlineShare OnlineShare Online
 

Kommentare

  1. Geschrieben am 28. November 2017, 15:58 Uhr von Corrukta · #

    Sind da die hinterlegten Daten falsch oder warum sehe ich 2x German Audio (1x DTS, 1x AC3)