Filmwünsche können bei uns im Forum abgegeben werden

Wir Speichern Nicht




 
 
 
Top Releases
Dalida.2016.GERMAN.720p.BluR...
Dalida.2016.GERMAN.1080p.Blu...
Dalida.2016.DUAL.COMPLETE.BL...
Mein.fast.perfekter.Vater.Th...
Die.Tribute.von.Panem.Catchi...
The.Accountant.2016.German.D...
X.Men.Zukunft.ist.Vergangenh...
Promised.Land.2012.German.DL...
Oblivion.2013.German.DL.1080...
Monster.Hunt.2015.German.DL....

Cinedubs
Flatliners.2017.German.AC3MD...
Flatliners.2017.German.AC3MD...
Dunkirk.2017.IMAX.German.AC3...
Dunkirk.2017.IMAX.German.AC3...
Dunkirk.2017.IMAX.German.AC3...
Schneemann.German.DL.AC3.Dub...
ES.2017.German.DL.AC3.Dubbed...
Dunkirk.2017.German.AC3MD.DL...
The.Lego.Ninjago.Movie.2017....
The.Lego.Ninjago.Movie.2017....

Neuerscheinungen 2016-17
The.Holly.Kane.Experiment.20...
Iron.Man.2.4k.2010.multi.com...
Escape.Room.2017.German.DL.1...
Escape.Room.2017.German.720p...
Max.Agent.auf.vier.Pfoten.20...
Max.Agent.auf.vier.Pfoten.20...
Max.Agent.auf.vier.Pfoten.20...
Leatherface.2017.German.720p...
Leatherface.2017.German.DL.1...
Deep.Purple.From.Here.to.inF...

XXX
RealAgent.17.10.01.Mia.Wants...
RealAgent.17.09.07.Ally.Bree...
RealAgent.17.09.07.Nestys.Le...
PremiumBukkake.17.09.20.Ria....
QuebecProductions.16.02.11.A...
RealAgent.17.09.15.Nikki.Wai...
QuebecProductions.16.02.26.S...
PrivateSociety.17.12.02.Melo...
RealAgent.17.09.22.Jessica.L...
PornMegaLoad.17.12.01.Sandra...
QuebecProductions.16.01.28.N...
QuebecProductions.16.01.22.C...
RealAgent.17.09.07.Empera.Ad...
QuebecProductions.16.02.25.A...
PrincessCum.17.11.28.Lily.Ad...
PornMegaLoad.17.12.02.Kaci.L...
PornMegaLoad.17.11.30.Mahoga...
PropertySex.17.12.01.Victori...
PublicAgent.17.12.01.Jessica...
RealAgent.17.09.10.Party.Les...

3D
Walhalla.Rising.3D.2009.Germ...
Spider.Man.Homecoming.3D.Ger...
Valerian.Die.Stadt.der.tause...
Valerian.Die.Stadt.der.tause...
Valerian.Die.Stadt.der.tause...
Valerian.Die.Stadt.der.tause...
Warcraft.The.Beginning.3D.HS...
Transformers.The.Last.Knight...
Warcraft.The.Beginning.3D.HO...
Die.Schneekoenigin.3.Feuer.u...
Die.Schneekoenigin.3.Feuer.u...
Terra.X.Dracula.-.Die.wahre....
Abenteuer.Safari.3D.Safari.P...
Die.Schneekoenigin.3.3D.2016...
Spider.Man.Homecoming.3D.201...

Old_Stuff
American.Sniper.2014.MULTi.C...
Hana-bi.Feuerblume.1997.Germ...
Memphis.Belle.1990.German.DL...
Im.Schatten.des.Mondes.Germa...
Tomb.Raider.2001.DUAL.COMPLE...
Tomb.Raider.Die.Wiege.des.Le...
Party.Animals.3.German.AC3.7...
The.Rocky.Horror.Picture.Sho...
Die.Fliege.1986.German.DTS.1...
Mimic.2.2001.German.DD5.1D.D...
The.Tournament.UNCUT.2009.Ge...
Dr.House.S08.German.720p.Blu...
Dr.House.S07.German.720p.Blu...
Dr.House.S06.German.720p.Blu...
Dr.House.S05.German.720p.Blu...

Musik
Remote.Galaxy.by.Flint.Juven...
Trondheim.Solistene.Souvenir...
The.Beatles.Sgt.Peppers.Lone...
The.Prometheus.Dolby.Atmos.E...
R.E.M.OUT.OF.TIME.25th.Anniv...
The.Rolling.Stones.GRRR.BR-A...
Mussorgsky.Bilder.einer.Auss...
Yes.-.The.Yes.Album.Bluray-A...
Carlos.Heredia.Gypsy.Flamenc...
SPES.2014.complete.Bluray.un...
Carlos.Santana.Collection.19...
Pink.Floyd.The.Endless.River...
The.Hyperion.Romantic.Piano....
Putumayo.113.CD.Flac.lossles...
UFO.Let.It.Roll.Limited.Edit...

Filme
Starship.Troopers.1997.Germa...
Colors.Farben.der.Gewalt.UNR...
Das.Privatleben.des.Sherlock...
Twin.Dragons.1992.German.AC3...
Strike.One.2014.German.AC3.D...
The.Good.Fight.S01.GERMAN.DU...
Game.of.thrones.s07d01.2017....
187.Eine.toedliche.Zahl.1997...
Gib.dem.Affen.Zucker.1981.RE...
Gib.dem.Affen.Zucker.1981.RE...
Good.Behavior.S02.GERMAN.720...
Kevin.Can.Wait.S02.German.10...
Kevin.Can.Wait.S02.German.72...
Blindspot.S02.COMPLETE.Germa...
The.Librarians.S03.COMPLETE....
Outlander.S03.German.DD51.DL...
Outlander.S03.German.DD51.DL...
Manhunt.Unabomber.S01.German...
Manhunt.Unabomber.S01.German...
The.Walking.Dead.S08.GERMAN....
Zebo.der.Dritte.aus.der.Ster...
Mimzy.Meine.Freundin.aus.der...
Supernatural.S11.COMPLETE.Ge...
No.Problem.2010.German.1080p...

 
 
The.Man.with.the.Iron.Heart.2017.1080p.BluRay.x264-PSYCHD
Jahr: 2017
Genre: Action, Biografie, Thriller
Sprache: Englisch AC3
Laufzeit: 2h 0mn
Bitrate: 10.4 Mbps
Format: MKV
Größe: 8.74 GiB
Release:

Beschreibung:

Im Jahr 1942 befindet sich Nazi-Deutschland auf dem Höhepunkt seines Machtstrebens. Doch der tcheschiche Widerstand plant von London aus eine Operation, die den Verlauf des Krieges nachhaltig verändern könnte. Zwei junge Widerstandskämpfer werden nach Prag entsand, wo sie den brutalen Nazi-Kommandeur Reinhard Heydrich (Jason Clark) ermorden soll. Dieser ist für den Tod Tausender Unschuldiger verantwortlich und gilt als strategischer Kopf der sogenannten “Endlösung”…



Complete name                            : The.Man.with.the.Iron.Heart.2017.1080p.BluRay.x264-PSYCHD.mkv
Format                                   : Matroska
Format version                           : Version 4 / Version 2
File size                                : 8.74 GiB
Duration                                 : 2h 0mn
Overall bit rate                         : 10.4 Mbps
Encoded date                             : UTC 2010-02-22 21:41:29
Writing application                      : no_variable_data
Writing library                          : no_variable_data

Video
ID                                       : 1
Format                                   : AVC
Format/Info                              : Advanced Video Codec
Format profile                           : High@L4.1
Format settings, CABAC                   : Yes
Format settings, ReFrames                : 5 frames
Codec ID                                 : V_MPEG4/ISO/AVC
Duration                                 : 2h 0mn
Bit rate                                 : 9 766 Kbps
Width                                    : 1 920 pixels
Height                                   : 808 pixels
Display aspect ratio                     : 2.40:1
Frame rate mode                          : Constant
Frame rate                               : 23.976 fps
Color space                              : YUV
Chroma subsampling                       : 4:2:0
Bit depth                                : 8 bits
Scan type                                : Progressive
Bits/(Pixel*Frame)                       : 0.263
Stream size                              : 8.03 GiB (92%)
Writing library                          : x264 core 152 r2851 ba24899
Encoding settings                        : cabac=1 / ref=5 / deblock=1:-3:-3 / analyse=0x3:0x113 / me=umh / subme=8 / psy=1 / psy_rd=1.00:0.00 / mixed_ref=1 / me_range=32 / chroma_me=1 / trellis=1 / 8x8dct=1 / cqm=0 / deadzone=21,11 / fast_pskip=1 / chroma_qp_offset=-2 / threads=24 / lookahead_threads=4 / sliced_threads=0 / nr=0 / decimate=1 / interlaced=0 / bluray_compat=0 / constrained_intra=0 / bframes=3 / b_pyramid=2 / b_adapt=2 / b_bias=0 / direct=3 / weightb=1 / open_gop=0 / weightp=2 / keyint=240 / keyint_min=24 / scenecut=40 / intra_refresh=0 / rc_lookahead=50 / rc=2pass / mbtree=1 / bitrate=9766 / ratetol=1.0 / qcomp=0.60 / qpmin=0 / qpmax=69 / qpstep=4 / cplxblur=20.0 / qblur=0.5 / ip_ratio=1.40 / aq=3:0.80
Default                                  : Yes
Forced                                   : No
DURATION                                 : 02:00:17.753000000
NUMBER_OF_FRAMES                         : 173053
NUMBER_OF_BYTES                          : 8809127800
_STATISTICS_WRITING_APP                  : no_variable_data
_STATISTICS_WRITING_DATE_UTC             : 1970-01-01 00:00:00
_STATISTICS_TAGS                         : BPS DURATION NUMBER_OF_FRAMES NUMBER_OF_BYTES

Audio
ID                                       : 2
Format                                   : AC-3
Format/Info                              : Audio Coding 3
Mode extension                           : CM (complete main)
Format settings, Endianness              : Big
Codec ID                                 : A_AC3
Duration                                 : 2h 0mn
Bit rate mode                            : Constant
Bit rate                                 : 640 Kbps
Channel(s)                               : 6 channels
Channel positions                        : Front: L C R, Side: L R, LFE
Sampling rate                            : 48.0 KHz
Bit depth                                : 16 bits
Compression mode                         : Lossy
Stream size                              : 551 MiB (6%)
Language                                 : English
Default                                  : Yes
Forced                                   : No
DURATION                                 : 02:00:17.568000000
NUMBER_OF_FRAMES                         : 225549
NUMBER_OF_BYTES                          : 577405440
_STATISTICS_WRITING_APP                  : no_variable_data
_STATISTICS_WRITING_DATE_UTC             : 1970-01-01 00:00:00
_STATISTICS_TAGS                         : BPS DURATION NUMBER_OF_FRAMES NUMBER_OF_BYTES

Text #1
ID                                       : 3
Format                                   : UTF-8
Codec ID                                 : S_TEXT/UTF8
Codec ID/Info                            : UTF-8 Plain Text
Language                                 : English
Default                                  : No
Forced                                   : No
DURATION                                 : 01:50:42.511000000
NUMBER_OF_FRAMES                         : 873
NUMBER_OF_BYTES                          : 25289
_STATISTICS_WRITING_APP                  : no_variable_data
_STATISTICS_WRITING_DATE_UTC             : 1970-01-01 00:00:00
_STATISTICS_TAGS                         : BPS DURATION NUMBER_OF_FRAMES NUMBER_OF_BYTES

Text #2
ID                                       : 4
Format                                   : UTF-8
Codec ID                                 : S_TEXT/UTF8
Codec ID/Info                            : UTF-8 Plain Text
Title                                    : SDH
Language                                 : English
Default                                  : No
Forced                                   : No
DURATION                                 : 01:55:22.790000000
NUMBER_OF_FRAMES                         : 1065
NUMBER_OF_BYTES                          : 28415
_STATISTICS_WRITING_APP                  : no_variable_data
_STATISTICS_WRITING_DATE_UTC             : 1970-01-01 00:00:00
_STATISTICS_TAGS                         : BPS DURATION NUMBER_OF_FRAMES NUMBER_OF_BYTES


Download:
Share Online Share OnlineShare OnlineShare Online
 

Kommentare