Filmwünsche können bei uns im Forum abgegeben werden

Wir Speichern Nicht




 
 
 
Top Releases
Logan.The.Wolverine.2017.Ger...
Logan.The.Wolverine.2017.Ger...
Dunkirk.2017.German.DL.2160p...
Cars.3.2017.multi.complete.B...
Mother.2017.German.AC3.DL.10...
Kingsman.The.Golden.Circle.2...
Logan.Lucky.2017.German.DL.1...
Spiderman.3.2007.German.DL.1...
Das.Bourne.Vermaechtnis.2012...
Iron.Man.2.2010.German.DL.21...

Cinedubs
Jigsaw.2017.German.AC3D.DL.7...
Jigsaw.2017.German.AC3D.DL.1...
Geostorm.2017.German.AC3MD.D...
Geostorm.2017.German.AC3MD.D...
The.LEGO.Ninjago.Movie.Germa...
The.LEGO.Ninjago.Movie.Germa...
Jigsaw.German.MD.DL.1080p.WE...
Jigsaw.German.MD.DL.720p.WEB...
Star.Wars.Episode.VIII.Die.l...
Bad.Moms.2.German.MD.DL.1080...

Neuerscheinungen 2017-18
Tigermilch.2017.GERMAN.720p....
Ich.einfach.unverbesserlich....
The.Prestige.2006.COMPLETE.U...
Men.in.Black.1997.COMPLETE.U...
The.Dark.Knight.2008.COMPLET...
November.Criminals.2017.Germ...
November.Criminals.2017.Germ...
November.Criminals.2017.Germ...
Beyond.Skyline.2017.German.A...
Der.Polkakoenig.2017.German....

XXX
BigTitsRoundAsses.18.01.11.V...
BigNaturals.18.01.10.Ella.Kn...
Bang.Europe.63.XXX.1080p.WEB...
21Naturals.18.01.10.Lexi.Lay...
WankItNow.18.01.11.Tammie.Le...
VivThomas.18.01.10.Cristal.C...
AllOver30.18.01.11.Mulatka.X...
Nubiles.18.01.10.Darcy.Rosa....
Nubiles.18.01.09.Sicilia.Yog...
VickyAtHome.16.10.28.6.Girl....
BangBros18.18.01.09.Tiffany....
WcpClub.17.06.16.Selena.Sant...
BigGulpGirls.18.01.09.Aspen....
WankItNow.18.01.10.Natalia.F...
VickyAtHome.16.11.04.Rubberd...
WcpClub.17.06.09.Angela.Whit...
AutoescuelaCumlouder.18.01.1...
Boobs.Exposed.6.XXX.1080p.WE...
1By-Day.18.01.10.Ellen.Betsy...
VickyAtHome.16.12.23.Reagan....

3D
Ares.2016.3D.HOU.German.1080...
Guardians.Of.The.Galaxy.Vol....
Ares.3D.2016.German.720p.Blu...
Ares.3D.2016.German.1080p.Bl...
El.Americano.Kleiner.Superhe...
Best.of.3D.vol.01.-.03.GERMA...
Pete.Smalls.is.Dead.3D.2010....
Baymax.Riesiges.Robowabohu.2...
Bigfoot.Junior.3D.2017.GERMA...
Bigfoot.Junior.3D.2017.Germa...
Bigfoot.Junior.3D.2017.Germa...
El.Americano.Kleiner.Superhe...
El.Americano.Kleiner.Superhe...
Walhalla.Rising.3D.2009.Germ...
Spider.Man.Homecoming.3D.Ger...

Old_Stuff
American.Sniper.2014.MULTi.C...
Hana-bi.Feuerblume.1997.Germ...
Memphis.Belle.1990.German.DL...
Im.Schatten.des.Mondes.Germa...
Tomb.Raider.2001.DUAL.COMPLE...
Tomb.Raider.Die.Wiege.des.Le...
Party.Animals.3.German.AC3.7...
The.Rocky.Horror.Picture.Sho...
Die.Fliege.1986.German.DTS.1...
Mimic.2.2001.German.DD5.1D.D...
The.Tournament.UNCUT.2009.Ge...
Dr.House.S08.German.720p.Blu...
Dr.House.S07.German.720p.Blu...
Dr.House.S06.German.720p.Blu...
Dr.House.S05.German.720p.Blu...

Filme
Star.Wars.The.Complete.Saga....
Young.Sheldon.S01.GERMAN.DUB...
Young.Sheldon.S01.GERMAN.DUB...
Day.of.the.Animals.1977.Germ...
Day.of.the.Animals.1977.Germ...
Men.in.Black.II.2002.COMPLET...
Die.Eisprinzen.2007.German.1...
100.000.Dollar.in.der.Sonne....
The.Crypt.Gruft.Des.Grauens....
Verlockende.Falle.-.Entrapme...
Austenland.German.DL.1080p.B...
Star.Trek.Discovery.S01.Germ...
Austenland.German.720p.BluRa...
Boomerang.Uncut.1992.German....
Splash.-.Eine.Jungfrau.am.Ha...
Highway.to.Hellas.2015.Germa...
Harry.Potter.und.der.Gefange...
GoodFellas.Drei.Jahrzehnte.i...
Der.Manchurian.Kandidat.2004...
Die.Bruecke.1959.German.REMA...
Die.Bruecke.1959.German.REMA...
Supernatural.S12.GERMAN.DUBB...
Supernatural.S12.GERMAN.DUBB...
The.Big.Bang.Theory.S11.Germ...

 
 
Flatliners.2017.German.AC3MD.DL.720p.BluRay.x264-LameHD
Jahr: 2017
Genre: Drama, Horror, Sci-Fi
Sprache: Deutsch AC3 | Englisch DTS
Laufzeit: 1h 49mn
Bitrate: 7 342 Kbps
Format: MKV
Größe: 5.63 GiB
Release:

Beschreibung:

Was sie in ihren Vorlesungen lernen, reicht den fünf jungen Medizinstudenten Courtney (Ellen Page), Ray (Diego Luna), Jamie (James Norton), Sophia (Kiersey Clemons) und Marlo (Nina Dobrev) nicht: Sie wollen noch viel mehr über den menschlichen Körper und Geist erfahren und sind bereit, für neue Erkenntnisse auch gefährliche Grenzen zu übertreten. Um herauszufinden, ob es ein Leben nach dem Tod gibt, beginnen sie mit einem riskanten Selbstversuch. Sie stoppen ihre Herzen für einen kurzen Zeitraum und bringen sich so an die Schwelle des Todes. Begeistert von dem, was dann geschieht, lassen die Studenten immer mehr Minuten verstreichen, bis sie sich gegenseitig per Defibrillator ins Leben zurückholen. Doch die Experimente bringen ungeahnte Nebenwirkungen mit sich und bald wachsen sie der Gruppe über den Kopf…



Complete name                            : lame-flatliners2017-720.mkv
Format                                   : Matroska
Format version                           : Version 4 / Version 2
File size                                : 5.63 GiB
Duration                                 : 1h 49mn
Overall bit rate                         : 7 342 Kbps
Encoded date                             : UTC 2017-12-12 09:26:54
Writing application                      : mkvmerge v9.7.1 ('Pandemonium') 64bit
Writing library                          : libebml v1.3.4 + libmatroska v1.4.5
DURATION                                 : 01:45:54.112000000
NUMBER_OF_FRAMES                         : 198566
NUMBER_OF_BYTES                          : 177915136
_STATISTICS_WRITING_APP                  : mkvmerge v9.7.1 ('Pandemonium') 64bit
_STATISTICS_WRITING_DATE_UTC             : 2017-12-12 09:26:54
_STATISTICS_TAGS                         : BPS DURATION NUMBER_OF_FRAMES NUMBER_OF_BYTES

Video
ID                                       : 1
Format                                   : AVC
Format/Info                              : Advanced Video Codec
Format profile                           : High@L4.1
Format settings, CABAC                   : Yes
Format settings, ReFrames                : 5 frames
Codec ID                                 : V_MPEG4/ISO/AVC
Duration                                 : 1h 49mn
Bit rate                                 : 5 616 Kbps
Width                                    : 1 280 pixels
Height                                   : 536 pixels
Display aspect ratio                     : 2.40:1
Frame rate mode                          : Constant
Frame rate                               : 23.976 fps
Color space                              : YUV
Chroma subsampling                       : 4:2:0
Bit depth                                : 8 bits
Scan type                                : Progressive
Bits/(Pixel*Frame)                       : 0.341
Stream size                              : 4.19 GiB (74%)
Writing library                          : x264 core 152 r2851 ba24899
Encoding settings                        : cabac=1 / ref=5 / deblock=1:0:0 / analyse=0x3:0x133 / me=umh / subme=7 / psy=1 / psy_rd=1.00:0.00 / mixed_ref=1 / me_range=16 / chroma_me=1 / trellis=1 / 8x8dct=1 / cqm=0 / deadzone=21,11 / fast_pskip=0 / chroma_qp_offset=-2 / threads=17 / lookahead_threads=2 / sliced_threads=0 / nr=0 / decimate=1 / interlaced=0 / bluray_compat=0 / constrained_intra=0 / bframes=3 / b_pyramid=2 / b_adapt=1 / b_bias=0 / direct=1 / weightb=1 / open_gop=0 / weightp=2 / keyint=250 / keyint_min=23 / scenecut=40 / intra_refresh=0 / rc_lookahead=40 / rc=2pass / mbtree=1 / bitrate=5616 / ratetol=1.0 / qcomp=0.60 / qpmin=0 / qpmax=69 / qpstep=4 / cplxblur=20.0 / qblur=0.5 / ip_ratio=1.40 / aq=1:1.00
Language                                 : English
Default                                  : Yes
Forced                                   : No
DURATION                                 : 01:49:46.549000000
NUMBER_OF_FRAMES                         : 157919
NUMBER_OF_BYTES                          : 4622035691
_STATISTICS_WRITING_APP                  : mkvmerge v9.7.1 ('Pandemonium') 64bit
_STATISTICS_WRITING_DATE_UTC             : 2017-12-12 09:26:54
_STATISTICS_TAGS                         : BPS DURATION NUMBER_OF_FRAMES NUMBER_OF_BYTES

Audio #1
ID                                       : 2
Format                                   : AC-3
Format/Info                              : Audio Coding 3
Mode extension                           : CM (complete main)
Format settings, Endianness              : Big
Codec ID                                 : A_AC3
Duration                                 : 1h 49mn
Bit rate mode                            : Constant
Bit rate                                 : 224 Kbps
Channel(s)                               : 2 channels
Channel positions                        : Front: L R
Sampling rate                            : 48.0 KHz
Bit depth                                : 16 bits
Compression mode                         : Lossy
Stream size                              : 176 MiB (3%)
Language                                 : German
Default                                  : Yes
Forced                                   : No

Audio #2
ID                                       : 3
Format                                   : DTS
Format/Info                              : Digital Theater Systems
Mode                                     : 16
Format settings, Endianness              : Big
Codec ID                                 : A_DTS
Duration                                 : 1h 49mn
Bit rate mode                            : Constant
Bit rate                                 : 1 509 Kbps
Channel(s)                               : 6 channels
Channel positions                        : Front: L C R, Side: L R, LFE
Sampling rate                            : 48.0 KHz
Bit depth                                : 24 bits
Compression mode                         : Lossy
Stream size                              : 1.16 GiB (21%)
Language                                 : English
Default                                  : No
Forced                                   : No


Download:
Share Online Share OnlineShare OnlineShare Online
 

Kommentare