Die aktuelle Sicherheitswarnung bei Filecrypt kann ignoriert werden! Man kümmert sich um das Problem!

DNS SERVER AENDERNum der staatlichen Zensur zu umgehen. Sollten wir von eurem Provider geseprrt werden, nutzt den TOR BROWSER oder ändert euren DNS SERVER.

Filmwünsche können bei uns im Forum abgegeben werden

Wir Speichern Nicht




 
 
 
Top Releases
Allied.2016.MULTi.COMPLETE.U...
Die.Unsichtbaren.Wir.wollen....
Bill.Was.fuer.ein.Theater.Bi...
Bill.Was.fuer.ein.Theater.20...
Bill.Was.fuer.ein.Theater.20...
Lady.Macbeth.2016.MULTI.COMP...
Lady.Macbeth.2016.GERMAN.DL....
Lady.Macbeth.2016.GERMAN.720...
Star.Wars.Episode.VIII.Die.l...
La.Melodie.Der.Klang.von.Par...

Cinedubs
Peter.Hase.2018.German.MD.DL...
Peter.Hase.2018.German.MD.DL...
Pacific.Rim.2.Uprising.Germa...
Pacific.Rim.2.Uprising.Germa...
Winchester.2018.German.AC3MD...
Winchester.2018.German.AC3MD...
Red.Sparrow.German.DL.AC3.Du...
Red.Sparrow.German.DL.AC3.Du...
The.Humanity.Bureau.2017.Ger...
Wer.ist.Daddy.German.DL.AC3....

Neuerscheinungen 2017-18
Death.Racers.2008.GERMAN.DL....
Sugar.Mountain.Spurlos.in.Al...
Sugar.Mountain.Spurlos.in.Al...
Death.Racers.2008.COMPLETE.B...
House.Harker.Vampirjaeger.wi...
Battle.For.Karbala.2015.GERM...
Amelie.rennt.2017.GERMAN.108...
Death.Racers.2008.GERMAN.720...
Amelie.rennt.2017.GERMAN.720...
House.Harker.Vampirjaeger.wi...

XXX
WankItNow.18.03.17.Dolly.Suc...
GetYourKneesDirty.18.03.12.K...
WebYoung.18.03.16.Elsa.Jean....
Geki.Ranko.Yuki.Aida.XXX.108...
BlackSinner.17.06.20.Sheena....
ATKHairy.18.03.19.Niki.Snow....
GermanGooGirls.18.03.16.Ria....
Geki.Ranko.Yuki.Aida.XXX.720...
Watch4Beauty.18.03.21.Angel....
BlackSinner.17.06.20.Rochell...
WhenGirlsPlay.18.03.20.Amili...
Vixen.18.03.20.Tori.Black.XX...
YoungBusty.17.12.25.Jeanne.X...
YoungBusty.17.12.18.Nicole.L...
GhettoGaggers.E407.Shae.Spre...
YoungBusty.17.12.04.Nikki.Dr...
WetAndPuffy.18.03.19.Lucia.D...
Blacked.18.03.16.Abella.Dang...
GhettoGaggers.E406.Sharee.2....
YoungBusty.17.12.11.Anabelle...

3D
Star.Wars.Episode.VIII.Die.l...
Star.Wars.Episode.VIII.Die.l...
Star.Wars.Episode.VIII.Die.l...
Jumanji.Welcome.To.The.Jungl...
Star.Wars.The.Last.Jedi.2017...
Final.Storm.Der.Untergang.de...
Final.Storm.Der.Untergang.de...
Jumanji.Willkommen.im.Dschun...
Star.Wars.Episode.VIII.Die.l...
Star.Wars.Episode.VIII.Die.l...
Nightmare.Schlaf.nicht.ein.2...
Justice.League.3D.2017.HOU.G...
Coco.Lebendiger.als.das.Lebe...
Coco.Lebendiger.als.das.Lebe...
Coco.Lebendiger.als.das.Lebe...

Old_Stuff
North.Country.Kaltes.Land.20...
Fuenf.Freunde.German.1080p.B...
Sin.City.2005.Theatrical.Cut...
Nuts.Durchgedreht.1987.Germa...
Antarctica.Gefangen.Im.Eis.2...
Terminator.2.Tag.Der.Abrechn...
Winters.Tale.2014.German.108...
Kampf.Der.Titanen.2010.Germa...
Bibi.und.Tina.Tohuwabohu.Tot...
Bibi.und.Tina.voll.Verhext.2...
Cargo.Da.draussen.bist.du.al...
The.Purge.Die.Saeuberung.201...
The.Purge.Anarchy.2014.MULTi...
The.Purge.3.Election.Year.20...
Orphan.Black.S02.German.DL.1...

Filme
In.the.Crossfire.2010.German...
Famine.UNCUT.GERMAN.2011.DL....
Um.jeden.Preis.2014.German.D...
Rosannas.letzter.Wille.1997....
Higher.Learning.-.Die.Rebell...
Backtrack.2014.German.DL.108...
Gladiator.2000.German.DTS.Op...
Bangkok.Adrenalin.2009.Germa...
Blind.Date.1987.German.AC3D....
Nachdem.ich.ihm.begegnet.bin...
Leprechaun.1-6.Hexalogie.Ger...
Alaska.1996.German.AC3D.DL.1...
Jab.We.Met.-.Als.ich.Dich.tr...
Koenigliche.Hochzeit.1951.Ge...
MotoGP.Moto2.Moto3.Saison.20...
MotoGP.Moto2.Moto3.Saison.20...
King.Kong.2005.EXTENDED.GERM...
Ein.Ticket.fuer.zwei.1987.Ge...
King.Kong.2005.EXTENDED.Germ...
King.Kong.2005.THEATRICAL.Ge...
Sugar.Mountain.Spurlos.in.Al...
Bram.Stokers.Dracula.1992.RE...
Eolomea.1972.German.1080p.Bl...
Eolomea.1972.German.720p.Blu...

 
 
El.Americano.Kleiner.Superheld.mit.grossem.Herz.3D.2016.German.720p.BluRay.x264-LizardSquad
Jahr: 2016
Genre: Animation, Abenteuer, Komödie
Sprache: Deutsch DTS
Laufzeit: 1h 27mn
Bitrate: 3 952 Kbps
Format: MKV
Größe: 2.43 GiB
Release:

Beschreibung:

Cuco, ein kleiner mexikanischer Papagei, liebt die amerikanischen Superhelden-TV-Show El Americano. Sie verschafft ihm Ablenkung vom täglichen Einerlei vom familieneigenen Vogelzirkus, den sein Papa mit viel Herzblut leitet. Cuco verehrt sein Idol regelrecht und ahmt immerzu seine tollkühnen Sprünge nach. Als sich eines Tages herausstellt, dass das traditionelle Cape der Familie heißer begehrt ist, als sich Cuco jemals hätte vorstellen können und der böse Vogel Martin seinen Vater nicht nur zum Kampf um das Cape herausfordert, sondern auch hinterlistig zu Fall bringt, ist plötzlich Cuco der Einzige, der noch Hilfe für die Familie herbeiholen kann. Gemeinsam mit seinen Freunden, dem Kanarienvogel Paquito und dem Storch Garcia, macht er sich auf den weiten Weg nach Hollywood zu El Americano…



Complete name                            : El.Americano.Kleiner.Superheld.mit.grossem.Herz.3D.2016.German.720p.BluRay.x264-LizardSquad.mkv
Format                                   : Matroska
Format version                           : Version 4 / Version 2
File size                                : 2.43 GiB
Duration                                 : 1h 27mn
Overall bit rate                         : 3 952 Kbps
Encoded date                             : UTC 2017-12-13 18:20:59
Writing application                      : mkvmerge v9.7.1 ('Pandemonium') 64bit
Writing library                          : libebml v1.3.4 + libmatroska v1.4.5
DURATION                                 : 01:22:58.762000000
NUMBER_OF_FRAMES                         : 76
NUMBER_OF_BYTES                          : 779986
_STATISTICS_WRITING_APP                  : mkvmerge v9.7.1 ('Pandemonium') 64bit
_STATISTICS_WRITING_DATE_UTC             : 2017-12-13 18:20:59
_STATISTICS_TAGS                         : BPS DURATION NUMBER_OF_FRAMES NUMBER_OF_BYTES

Video
ID                                       : 1
Format                                   : AVC
Format/Info                              : Advanced Video Codec
Format profile                           : High@L4.1
Format settings, CABAC                   : Yes
Format settings, ReFrames                : 5 frames
Codec ID                                 : V_MPEG4/ISO/AVC
Duration                                 : 1h 27mn
Bit rate                                 : 2 364 Kbps
Width                                    : 1 280 pixels
Height                                   : 720 pixels
Display aspect ratio                     : 16:9
Frame rate mode                          : Constant
Frame rate                               : 23.976 fps
Color space                              : YUV
Chroma subsampling                       : 4:2:0
Bit depth                                : 8 bits
Scan type                                : Progressive
Bits/(Pixel*Frame)                       : 0.107
Stream size                              : 1.45 GiB (60%)
Writing library                          : x264 core 152 r2851 ba24899
Encoding settings                        : cabac=1 / ref=5 / deblock=1:-3:-3 / analyse=0x3:0x133 / me=umh / subme=8 / psy=1 / psy_rd=1.00:0.15 / mixed_ref=1 / me_range=16 / chroma_me=1 / trellis=1 / 8x8dct=1 / cqm=0 / deadzone=21,11 / fast_pskip=0 / chroma_qp_offset=-3 / threads=12 / lookahead_threads=2 / sliced_threads=0 / nr=0 / decimate=1 / interlaced=0 / bluray_compat=0 / constrained_intra=0 / bframes=3 / b_pyramid=2 / b_adapt=2 / b_bias=0 / direct=3 / weightb=1 / open_gop=0 / weightp=2 / keyint=240 / keyint_min=24 / scenecut=40 / intra_refresh=0 / rc_lookahead=50 / rc=crf / mbtree=1 / crf=20.0 / qcomp=0.60 / qpmin=0 / qpmax=69 / qpstep=4 / ip_ratio=1.40 / aq=1:1.00
Language                                 : English
Default                                  : Yes
Forced                                   : No
DURATION                                 : 01:27:59.395000000
NUMBER_OF_FRAMES                         : 126579
NUMBER_OF_BYTES                          : 1609713509
_STATISTICS_WRITING_APP                  : mkvmerge v9.7.1 ('Pandemonium') 64bit
_STATISTICS_WRITING_DATE_UTC             : 2017-12-13 18:20:59
_STATISTICS_TAGS                         : BPS DURATION NUMBER_OF_FRAMES NUMBER_OF_BYTES

Audio
ID                                       : 2
Format                                   : DTS
Format/Info                              : Digital Theater Systems
Mode                                     : 16
Format settings, Endianness              : Big
Codec ID                                 : A_DTS
Duration                                 : 1h 27mn
Bit rate mode                            : Constant
Bit rate                                 : 1 509 Kbps
Channel(s)                               : 6 channels
Channel positions                        : Front: L C R, Side: L R, LFE
Sampling rate                            : 48.0 KHz
Bit depth                                : 24 bits
Compression mode                         : Lossy
Stream size                              : 950 MiB (38%)
Language                                 : German
Default                                  : Yes
Forced                                   : No

Text
ID                                       : 3
Format                                   : VobSub
Muxing mode                              : zlib
Codec ID                                 : S_VOBSUB
Codec ID/Info                            : The same subtitle format used on DVDs
Language                                 : German
Default                                  : Yes
Forced                                   : Yes


Download:
Share Online Share OnlineShare OnlineShare Online
 

Kommentare