HD-AREA wünscht Euch eine besinnliche Weihnachtszeit ;)

DNS SERVER AENDERNum der staatlichen Zensur zu umgehen. Sollten wir von eurem Provider geseprrt werden, nutzt den TOR BROWSER oder ändert euren DNS SERVER.

Filmwünsche können bei uns im Forum abgegeben werden

Wir Speichern Nicht




 
 
 
Top Releases
Von.Loewen.und.Laemmern.2007...
The.Hateful.8.2015.German.AC...
Der.Unsichtbare.Gast.2016.Ge...
BlacKkKlansman.2018.German.A...
Von.Loewen.und.Laemmern.2007...
Von.Loewen.und.Laemmern.2007...
Von.Loewen.und.Laemmern.2007...
Braven.2018.German.AC3.DL.10...
The.Last.Movie.Star.2017.DUA...
The.Infiltrator.2016.German....

Cinedubs
Johnny.English.Man.lebt.nur....
Johnny.English.Man.lebt.nur....
Johnny.English.Man.lebt.nur....
Phantastische.Tierwesen.Grin...
Phantastische.Tierwesen.Grin...
The.Guilty.2018.German.AC3D....
The.Guilty.2018.German.AC3D....
Aufbruch.zum.Mond.German.DL....
Aufbruch.zum.Mond.German.DL....
Night.School.2018.GERMAN.DL....

Neuerscheinungen 2017-18
The.Howling.1981.MULTI.COMPL...
Monster.Hunt.2.2018.DUAL.COM...
Slender.Man.2018.MULTi.COMPL...
Der.Teufelsschrei.Evilspeak....
Ultimate.Justice.Toeten.oder...
Ben.Abenteuer.auf.der.Maeuse...
Ben.Abenteuer.auf.der.Maeuse...
Ben.Abenteuer.auf.der.Maeuse...
Ultimate.Justice.Toeten.oder...
Ultimate.Justice.Toeten.oder...

XXX
LaurenPhillips.17.08.04.Game...
FatManFuck.18.07.01.Lola.Rae...
Lubed.18.12.10.Kiara.Cole.Te...
LaurenPhillips.17.09.01.Devo...
HardX.18.12.11.Jane.Wilde.Dr...
HollyRandall.18.12.11.Nicole...
ManuelFerrara.18.12.10.Kayla...
FatManFuck.18.09.23.Dolly.XX...
LoneMilf.18.12.10.Summer.Har...
HotLegsAndFeet.18.12.11.Barb...
FatManFuck.18.09.02.Skyler.S...
Horror.Shop.Vol.2.XXX.1080p....
LaurenPhillips.17.07.21.Play...
LetsTryAnal.18.12.11.Emily.W...
LaurenPhillips.17.08.25.Let....
Hustler.18.12.09.Britney.Amb...
FatManFuck.18.06.30.Little.T...
HornyDoctor.18.12.10.Karol.L...
FatManFuck.18.06.24.Lauren.C...
HeavyOnHotties.18.12.11.Frai...

3D
Meg.3D.2018.MULTi.COMPLETE.B...
Meg.3D.2018.German.DL.1080p....
Gans.im.Glueck.3D.2018.MULTi...
The.Art.of.Flight.3D.2011.Ge...
The.End.Of.The.World.3D.2010...
The.First.Avenger.Civil.War....
Die.Unglaublichen.2.2018.3D....
Skyscraper.3D.2018.MULTi.COM...
Ant-Man.And.The.Wasp.3D.2018...
Ant.Man.and.the.Wasp.3D.2018...
Die.Unglaublichen.2.3D.2018....
Die.Unglaublichen.2.2018.3D....
Die.Unglaublichen.2.2018.3D....
Sharknado.6.The.Last.One.3D....
Deep.Kleine.Helden.der.Tiefs...

Old_Stuff
Akte.X.S05.German.DTS.DL.108...
Akte.X.S04.German.DTS.DL.108...
Akte.X.S03.German.DTS.DL.108...
Dunkirk.1958.COMPLETE.BLURAY...
Das.Wunder.von.Manhattan.199...
The.Amazing.Spiderman.2.Rise...
Rise.of.the.Predator.2014.Ge...
Detective.Dee.und.das.Geheim...
Detective.Dee.Und.Der.Fluch....
Ghost.Rider.Spirit.of.Vengea...
Species.IV.Das.Erwachen.2007...
Species.IV.Das.Erwachen.2007...
Hotel.Transsilvanien.2012.Ge...
The.Dead.2010.German.DL.1080...
The.Dead.2.India.2013.German...

Filme
Das.Schlafzimmerfenster.aka....
So.wie.wir.waren.1973.German...
Schindlers.Liste.1993.German...
Jesse.James.Mann.ohne.Gesetz...
Modern.Family.S09.GERMAN.DUB...
Modern.Family.S09.GERMAN.DUB...
MADIBA.S01D01-2.MULTi.COMPLE...
Suits.S07.COMPLETE.German.DL...
Summer.Shark.Attack.2016.Ger...
Fail.State.2017.1080p.WEB.H2...
Sugarhouse.2007.German.DL.10...
Suicide.Note.Falscher.Verdac...
Suicide.Squad.2016.German.TH...
Summer.of.Sam.1999.German.AC...
Summer.Scars.2007.German.DL....
Robin.Williams.Come.Inside.M...
Black.Book.2006.German.AC3D....
In.Sachen.Liebe.1997.German....
Sunset.Boulevard.1950.German...
Sunshine.Barry.und.die.Disco...
Super.Buddies.2013.German.AC...
Super.Cyclone.2012.German.DL...
Trumps.heisse.Grenze.GERMAN....
Supercollider.The.Black.Hole...

 
 
Dark.City.1998.DC.German.DTSD.DL.1080p.BluRay.x264-iND
Jahr: 1998
Genre: Drama, Fantasy, Sci-Fi
Sprache: Deutsch DTS | Englisch DTS
Laufzeit: 1h 51mn
Bitrate: 15.0 Mbps
Format: MKV
Größe: 11.7 GiB
Release:

Beschreibung:

Dark City ist eine Stadt ohne Namen, ohne Vergangenheit – und ohne Zukunft. John Murdoch wird gejagt. Während er verzweifelt versucht, seinen Verfolgern zu entkommen, kommt er nach und nach hinter das grausige Geheimnis der Stadt: Die “Fremden” manipulieren das Leben aller Menschen und verändern nach Belieben das Stadtbild. Die Außerirdischen sind dem Geheimnis der menschlichen Seele auf der Spur. Doch sie haben nicht mit der Menschlichkeit gerechnet



Complete name                            : ind-dacity-1080p.mkv
Format                                   : Matroska
Format version                           : Version 2
File size                                : 11.7 GiB
Duration                                 : 1h 51mn
Overall bit rate                         : 15.0 Mbps
Encoded date                             : UTC 2017-04-26 15:16:12
Writing application                      : mkvmerge v4.5.0 ('Speed of Light') gebaut am Feb  1 2011 02:10:32
Writing library                          : libebml v1.2.0 + libmatroska v1.1.0

Video
ID                                       : 1
Format                                   : AVC
Format/Info                              : Advanced Video Codec
Format profile                           : High@L4.1
Format settings, CABAC                   : Yes
Format settings, ReFrames                : 4 frames
Codec ID                                 : V_MPEG4/ISO/AVC
Duration                                 : 1h 51mn
Bit rate                                 : 12.0 Mbps
Width                                    : 1 920 pixels
Height                                   : 804 pixels
Display aspect ratio                     : 2.40:1
Frame rate mode                          : Constant
Frame rate                               : 23.976 fps
Color space                              : YUV
Chroma subsampling                       : 4:2:0
Bit depth                                : 8 bits
Scan type                                : Progressive
Bits/(Pixel*Frame)                       : 0.324
Stream size                              : 9.13 GiB (78%)
Writing library                          : x264 core 129 r2245 bc13772
Encoding settings                        : cabac=1 / ref=4 / deblock=1:-3:-3 / analyse=0x3:0x113 / me=umh / subme=10 / psy=1 / psy_rd=1.00:0.00 / mixed_ref=1 / me_range=48 / chroma_me=1 / trellis=2 / 8x8dct=1 / cqm=0 / deadzone=21,11 / fast_pskip=1 / chroma_qp_offset=-2 / threads=12 / lookahead_threads=2 / sliced_threads=0 / nr=0 / decimate=1 / interlaced=0 / bluray_compat=0 / constrained_intra=0 / bframes=16 / b_pyramid=2 / b_adapt=2 / b_bias=0 / direct=1 / weightb=1 / open_gop=0 / weightp=2 / keyint=240 / keyint_min=24 / scenecut=40 / intra_refresh=0 / rc_lookahead=80 / rc=2pass / mbtree=1 / bitrate=11995 / ratetol=1.0 / qcomp=0.60 / qpmin=0 / qpmax=69 / qpstep=4 / cplxblur=20.0 / qblur=0.5 / vbv_maxrate=38000 / vbv_bufsize=30000 / nal_hrd=none / ip_ratio=1.40 / aq=1:1.00
Default                                  : Yes
Forced                                   : No

Audio #1
ID                                       : 2
Format                                   : DTS
Format/Info                              : Digital Theater Systems
Format profile                           : ES
Mode                                     : 16
Format settings, Endianness              : Big
Codec ID                                 : A_DTS
Duration                                 : 1h 51mn
Bit rate mode                            : Constant
Bit rate                                 : 1 509 Kbps
Channel(s)                               : 6 channels
Channel positions                        : Front: L C R, Side: L R, LFE
Sampling rate                            : 48.0 KHz
Bit depth                                : 24 bits
Compression mode                         : Lossy
Delay relative to video                  : 11ms
Stream size                              : 1.18 GiB (10%)
Title                                    : German
Language                                 : German
Default                                  : Yes
Forced                                   : No

Audio #2
ID                                       : 3
Format                                   : DTS
Format/Info                              : Digital Theater Systems
Mode                                     : 16
Format settings, Endianness              : Big
Codec ID                                 : A_DTS
Duration                                 : 1h 51mn
Bit rate mode                            : Constant
Bit rate                                 : 1 509 Kbps
Channel(s)                               : 6 channels
Channel positions                        : Front: L C R, Side: L R, LFE
Sampling rate                            : 48.0 KHz
Bit depth                                : 24 bits
Compression mode                         : Lossy
Delay relative to video                  : 22ms
Stream size                              : 1.18 GiB (10%)
Title                                    : English
Language                                 : English
Default                                  : No
Forced                                   : No

Text
ID                                       : 4
Format                                   : UTF-8
Codec ID                                 : S_TEXT/UTF8
Codec ID/Info                            : UTF-8 Plain Text
Title                                    : German forced
Language                                 : German
Default                                  : Yes
Forced                                   : Yes


Download:
Share Online Share OnlineShare OnlineShare Online
 

Kommentare