DNS SERVER AENDERNum der staatlichen Zensur zu umgehen. Sollten wir von eurem Provider geseprrt werden, nutzt den TOR BROWSER oder ändert euren DNS SERVER.

Filmwünsche können bei uns im Forum abgegeben werden

Wir Speichern Nicht




 
 
 
Top Releases
Das.Leben.ist.ein.Fest.2017....
Central.Intelligence.EXTENDE...
Wind.River.2017.German.AC3.D...
Wonder.Wheel.2017.GERMAN.720...
Wonder.Wheel.2017.German.DL....
Die.Verlegerin.2017.German.D...
Wonder.Wheel.2017.MULTi.COMP...
Peter.Hase.2018.German.AC3D....
Peter.Hase.2018.German.AC3D....
Nerve.2016.German.AC3.DL.108...

Cinedubs
Ready.Player.One.German.DL.A...
Ready.Player.One.German.DL.A...
Rampage.2018.German.AC3D.DL....
Rampage.2018.German.AC3D.DL....
Tomb.Raider.2018.3D.HSBS.Ger...
Tomb.Raider.2018.3D.HOU.Germ...
Pacific.Rim.2.Uprising.3D.HO...
Pacific.Rim.2.Uprising.3D.HS...
Pacific.Rim.2.Uprising.Germa...
Pacific.Rim.2.Uprising.Germa...

Neuerscheinungen 2017-18
Wahrheit.oder.Pflicht.2018.G...
Die.gnadenlosen.Vier.Posse.f...
Die.Wall.Street.Verschwoerun...
Die.Wall.Street.Verschwoerun...
Die.Wall.Street.Verschwoerun...
The.Lodgers.2017.MULTI.COMPL...
Hilfe.ich.hab.meine.Eltern.g...
Hilfe.Ich.hab.meine.Eltern.g...
Hilfe.Ich.habe.meine.Eltern....
Stephanie.-.Das.Boese.in.ihr...

XXX
HollyRandall.18.05.22.Ivy.Wo...
MeloneChallenge.18.06.12.Wen...
MetArtX.18.06.12.Melody.Wyld...
TheLifeErotic.18.06.12.Kate....
PornMegaLoad.18.06.11.Whitne...
LaCochonne.18.06.12.Sonya.Du...
HollyRandall.18.06.05.Mona.R...
GrandpasFuckTeens.18.06.12.L...
PornMegaLoad.18.06.11.Skye.S...
PublicPickUps.18.06.12.Rosse...
WildOnCam.18.06.12.Tori.Avan...
PureTaboo.18.06.12.Kendra.Sp...
ClubSeventeen.18.06.12.Dunya...
CzechCasting.18.06.11.Johank...
AmateurCFNM.18.06.12.Lexi.Ry...
ImmoralLive.18.06.12.Kesha.O...
BigButtsLikeItBig.18.06.12.A...
WildOnCam.18.06.12.Dolly.Lei...
Hegre.18.06.12.Grace.Dildo.D...
BrazzersExxtra.18.06.12.Laur...

3D
Zombies.Ueberlebe.die.Untote...
Der.Dschungel.Der.Zauber.ein...
Penthouse.Presents.Sexy.Sing...
The.LEGO.Ninjago.Movie.3D.20...
Zombies.Ueberlebe.die.Untote...
Norwegen.3D.2013.GERMAN.DL.D...
Norwegen.3D.2013.GERMAN.DOKU...
Jumanji.Willkommen.im.Dschun...
Jumanji.Welcome.To.The.Jungl...
Abraham.Lincoln.Vampire.Hunt...
Norwegen.3D.2013.MULTi.COMPL...
Star.Wars.Episode.VIII.Die.l...
Star.Wars.Episode.VIII.Die.l...
Star.Wars.Episode.VIII.Die.l...
Jumanji.Welcome.To.The.Jungl...

Old_Stuff
Weissensee.S03.2015.GERMAN.C...
Weissensee.S01+S02.2010.GERM...
Die.Unglaublichen.-.The.Incr...
Der.grosse.Trick.1978.German...
Sully.2016.MULTi.COMPLETE.BL...
Tremors.3.Die.neue.Brut.2001...
Die.Indianer.von.Cleveland.2...
Dealt.2017.1080p.AMZN.WEB-DL...
Dealt.2017.720p.AMZN.WEB-DL....
Roter.Staub.aka.The.Brave.On...
Roter.Staub.aka.The.Brave.On...
Magic.in.the.Moonlight.2014....
The.LEGO.Ninjago.Movie.2017....
Zeit.der.Zaertlichkeit.1983....
Zeit.der.Zaertlichkeit.1983....

Filme
The.Royals.2015.S04.German.D...
Marvels.Runaways.S01.German....
The.Good.Fight.S02.German.DD...
The.Good.Fight.S02.German.DD...
Blindspot.S03.German.DL.DUBB...
Excision.2012.German.AC3.DL....
Stand.and.Deliver.1988.Germa...
Criminal.Squad.EXTENDED.2018...
The.Stranger.Within.-.Gefäh...
Die.Geier.warten.schon.1973....
The.Sea.of.Trees.2015.German...
Conan.2011.German.Dubbed.DTS...
Flammen.am.Horizont.aka.Wron...
Apollo.13.1995.German.DTS.DL...
Central.Intelligence.2016.UN...
Der.Herr.der.Ringe.-.Die.zwe...
Der.Babadook.2014.German.DL....
Der.Babadook.2014.German.DL....
18.Stunden.bis.zur.Ewigkeit....
18.Stunden.bis.zur.Ewigkeit....
Das.Jerico.Projekt.Im.Kopf.d...
Die.letzten.Gluehwuermchen.1...
L.A.Confidential.REMASTERED....
Der.Hobbit.-.Eine.unerwartet...

 
 
El.Americano.Kleiner.Superheld.mit.grossem.Herz.2016.German.DL.1080p.BluRay.x264-iMPERiUM
Jahr: 2016
Genre: Animation, Abenteuer, Komödie
Sprache: Deutsch DTS | Englisch DTS
Laufzeit: 1h 27mn
Bitrate: 7 050 Kbps
Format: MKV
Größe: 4.33 GiB
Release:

Beschreibung:

Cuco, ein kleiner mexikanischer Papagei, liebt die amerikanischen Superhelden-TV-Show El Americano. Sie verschafft ihm Ablenkung vom täglichen Einerlei vom familieneigenen Vogelzirkus, den sein Papa mit viel Herzblut leitet. Cuco verehrt sein Idol regelrecht und ahmt immerzu seine tollkühnen Sprünge nach. Als sich eines Tages herausstellt, dass das traditionelle Cape der Familie heißer begehrt ist, als sich Cuco jemals hätte vorstellen können und der böse Vogel Martin seinen Vater nicht nur zum Kampf um das Cape herausfordert, sondern auch hinterlistig zu Fall bringt, ist plötzlich Cuco der Einzige, der noch Hilfe für die Familie herbeiholen kann. Gemeinsam mit seinen Freunden, dem Kanarienvogel Paquito und dem Storch Garcia, macht er sich auf den weiten Weg nach Hollywood zu El Americano…



Complete name                            : el.americano.kleiner.superheld.mit.grossem.herz.2016.german.dl.1080p.bluray.x264-imperium.mkv
Format                                   : Matroska
Format version                           : Version 2
File size                                : 4.33 GiB
Duration                                 : 1h 27mn
Overall bit rate                         : 7 050 Kbps
Writing application                      : mkvmerge v6.6.0 ('The Edge Of The In Between') built on Dec 1 2013 17:55:00
Writing library                          : libebml v1.3.0 + libmatroska v1.4.1

Video
ID                                       : 1
Format                                   : AVC
Format/Info                              : Advanced Video Codec
Format profile                           : High@L4.1
Format settings, CABAC                   : Yes
Format settings, ReFrames                : 4 frames
Codec ID                                 : V_MPEG4/ISO/AVC
Duration                                 : 1h 27mn
Bit rate                                 : 3 892 Kbps
Width                                    : 1 920 pixels
Height                                   : 1 080 pixels
Display aspect ratio                     : 16:9
Frame rate mode                          : Constant
Frame rate                               : 23.976 fps
Color space                              : YUV
Chroma subsampling                       : 4:2:0
Bit depth                                : 8 bits
Scan type                                : Progressive
Bits/(Pixel*Frame)                       : 0.078
Stream size                              : 2.39 GiB (55%)
Writing library                          : x264 core 152 r2851 ba24899
Encoding settings                        : cabac=1 / ref=4 / deblock=1:-3:-3 / analyse=0x3:0x133 / me=umh / subme=7 / psy=1 / psy_rd=1.00:0.15 / mixed_ref=1 / me_range=16 / chroma_me=1 / trellis=1 / 8x8dct=1 / cqm=0 / deadzone=21,11 / fast_pskip=0 / chroma_qp_offset=-3 / threads=12 / lookahead_threads=2 / sliced_threads=0 / nr=0 / decimate=1 / interlaced=0 / bluray_compat=0 / constrained_intra=0 / bframes=3 / b_pyramid=2 / b_adapt=2 / b_bias=0 / direct=3 / weightb=1 / open_gop=0 / weightp=2 / keyint=240 / keyint_min=24 / scenecut=40 / intra_refresh=0 / rc_lookahead=50 / rc=crf / mbtree=1 / crf=20.0 / qcomp=0.60 / qpmin=0 / qpmax=69 / qpstep=4 / ip_ratio=1.40 / aq=1:1.00
Language                                 : English
Default                                  : Yes
Forced                                   : No

Audio #1
ID                                       : 2
Format                                   : DTS
Format/Info                              : Digital Theater Systems
Mode                                     : 16
Format settings, Endianness              : Big
Codec ID                                 : A_DTS
Duration                                 : 1h 27mn
Bit rate mode                            : Constant
Bit rate                                 : 1 509 Kbps
Channel(s)                               : 6 channels
Channel positions                        : Front: L C R, Side: L R, LFE
Sampling rate                            : 48.0 KHz
Bit depth                                : 24 bits
Compression mode                         : Lossy
Stream size                              : 950 MiB (21%)
Language                                 : English
Default                                  : Yes
Forced                                   : No

Audio #2
ID                                       : 3
Format                                   : DTS
Format/Info                              : Digital Theater Systems
Mode                                     : 16
Format settings, Endianness              : Big
Codec ID                                 : A_DTS
Duration                                 : 1h 27mn
Bit rate mode                            : Constant
Bit rate                                 : 1 509 Kbps
Channel(s)                               : 6 channels
Channel positions                        : Front: L C R, Side: L R, LFE
Sampling rate                            : 48.0 KHz
Bit depth                                : 24 bits
Compression mode                         : Lossy
Stream size                              : 950 MiB (21%)
Default                                  : Yes
Forced                                   : No

Text
ID                                       : 4
Format                                   : UTF-8
Codec ID                                 : S_TEXT/UTF8
Codec ID/Info                            : UTF-8 Plain Text
Language                                 : German
Default                                  : Yes
Forced                                   : Yes


Download:
Share Online Share OnlineShare OnlineShare Online
 

Kommentare