HD-AREA wünscht Euch eine besinnliche Weihnachtszeit ;)

DNS SERVER AENDERNum der staatlichen Zensur zu umgehen. Sollten wir von eurem Provider geseprrt werden, nutzt den TOR BROWSER oder ändert euren DNS SERVER.

Filmwünsche können bei uns im Forum abgegeben werden

Wir Speichern Nicht




 
 
 
Top Releases
Von.Loewen.und.Laemmern.2007...
Von.Loewen.und.Laemmern.2007...
Braven.2018.German.AC3.DL.10...
The.Last.Movie.Star.2017.DUA...
The.Infiltrator.2016.German....
The.Equalizer.2.2018.German....
Avengers.Infinity.War.IMAX.2...
Mario.2018.GERMAN.COMPLETE.B...
Mario.2018.GERMAN.1080p.BluR...
Mario.2018.GERMAN.720p.BluRa...

Cinedubs
Aufbruch.zum.Mond.German.DL....
Aufbruch.zum.Mond.German.DL....
Night.School.2018.GERMAN.DL....
Night.School.2018.GERMAN.DL....
Gaensehaut.2.Gruseliges.Hall...
Gaensehaut.2.Gruseliges.Hall...
Unknown.User.2.Dark.Web.Germ...
Unknown.User.2.Dark.Web.Germ...
Peppermint.Angel.of.Vengeanc...
Peppermint.Angel.of.Vengeanc...

Neuerscheinungen 2017-18
Occupation.2018.GERMAN.DL.10...
Campus.Killer.Das.Boese.Kehr...
Campus.Killer.Das.Boese.Kehr...
Campus.Killer.Das.Boese.Kehr...
Kopfueber.in.die.Nacht.1985....
Panic.Untold.Story.Financial...
Campus.Killer.Das Boese.kehr...
Frankensteins.Kampf.gegen.di...
Frankensteins.Hoellenbrut.Go...
Wildling.2018.German.AC3.DL....

XXX
Passion-HD.18.12.01.Vina.Sky...
Private.18.12.01.Victoria.Pu...
PornFidelity.E771.Bridgette....
PlayboyPlus.18.12.03.Olivia....
PlumperPass.18.12.03.Angelin...
PervMom.18.11.29.Kenzie.Tayl...
PornMegaLoad.18.11.30.Alice....
PornStreamLive.18.12.01.Ayli...
NothingButCurves.18.11.30.Ga...
PornstarPlatinum.18.12.02.Ca...
PennyPaxLive.18.11.28.POV.Wi...
PornMegaLoad.18.12.02.Rachae...
Nubiles.18.12.02.Kate.Kenned...
PervMom.18.12.01.Jasmine.Jae...
PlayboyPlus.18.12.02.Playmat...
PornMegaLoad.18.12.01.Ariane...
PornMegaLoad.18.11.30.Nila.M...
POVManiaXXX.18.11.30.Lauren....
Nympho.18.12.01.Autumn.Falls...
NubileFilms.18.12.01.Cindy.S...

3D
Meg.3D.2018.German.DL.1080p....
Gans.im.Glueck.3D.2018.MULTi...
The.Art.of.Flight.3D.2011.Ge...
The.End.Of.The.World.3D.2010...
The.First.Avenger.Civil.War....
Die.Unglaublichen.2.2018.3D....
Skyscraper.3D.2018.MULTi.COM...
Ant-Man.And.The.Wasp.3D.2018...
Ant.Man.and.the.Wasp.3D.2018...
Die.Unglaublichen.2.3D.2018....
Die.Unglaublichen.2.2018.3D....
Die.Unglaublichen.2.2018.3D....
Sharknado.6.The.Last.One.3D....
Deep.Kleine.Helden.der.Tiefs...
Deep.3D.2017.MULTI.COMPLETE....

Old_Stuff
Akte.X.S04.German.DTS.DL.108...
Akte.X.S03.German.DTS.DL.108...
Dunkirk.1958.COMPLETE.BLURAY...
Das.Wunder.von.Manhattan.199...
The.Amazing.Spiderman.2.Rise...
Rise.of.the.Predator.2014.Ge...
Detective.Dee.und.das.Geheim...
Detective.Dee.Und.Der.Fluch....
Ghost.Rider.Spirit.of.Vengea...
Species.IV.Das.Erwachen.2007...
Species.IV.Das.Erwachen.2007...
Hotel.Transsilvanien.2012.Ge...
The.Dead.2010.German.DL.1080...
The.Dead.2.India.2013.German...
Britney.Spears.Live.The.Femm...

Filme
Das.Grab.der.Lygeia.1964.Ger...
Das.Grab.der.Lygeia.1964.Ger...
Occupation.2018.GERMAN.720p....
Pulp.Fiction.1994.German.AC3...
Running.Man.1987.Collectors....
Sword.with.no.Name.Der.Schat...
Swordman.1990.GERMAN.AC3D.10...
SxCam.2013.German.DL.1080p.B...
Sympathy.for.Delicious.2010....
Rachels.Hochzeit.2008.German...
Star.Trek.Discovery.S01D01+2...
100.Bloody.Acres.2012.German...
After.the.Sunset.2004.German...
Kopfueber.in.die.Nacht.1985....
Sushi.Girl.2012.German.DL.10...
Sushi.in.Suhl.2012.German.10...
Svengali.2013.German.DL.1080...
Sweatshop.UNCUT.2009.German....
Sweeney.Todd.Der.teuflische....
Passagier.23.Verschwunden.au...
Noch.Zimmer.frei.1962.German...
Future.Man.S01.COMPLETE.Germ...
The.Victorias.Secret.Fashion...
Der.Meister.mit.den.gebroche...

 
 
Deadly.Games.Stille.Nacht.Toedliche.Nacht.1989.German.1080p.BluRay.x264-SPiCY
Jahr: 1989
Genre: Horror, Thriller
Sprache: Deutsch AC3
Laufzeit: 1h 31mn
Bitrate: 8 531 Kbps
Format: MKV
Größe: 5.46 GiB
Release:

Beschreibung:

Gibt es den Weihnachtsmann wirklich? Der 9-jährige Thomas (Alain Lalanne) ist besessen von dem Wunsch, einen Blick auf den wundersamen Überbinger der Geschenke zu werfen. Glücklicherweise hat Thomas ein ausgesprochen gutes Händchen für die Technik, so dass es für ihn ein Leichtes ist, das Wohnhaus seiner Eltern mit Überwachungskameras zu bestücken. So hat der Weihnachtsmann keine Chance, ungesehen wieder zu verschwinden. Als es aber soweit ist, wartet auf Thomas eine böse Überraschung. Denn ein geistesgestörter Mann in der bekannten Kostümierung mit rotem Mantel und weißem Bart dringt in das Haus ein. Jetzt muss sich Thomas gegen das gewalttätige Vorhaben des falschen Weihnachtsmanns wehren. Zwischen den beiden entwickelt sich eine Auseinandersetzung, die mit allen Tricks geführt wird, um die Oberhand zu gewinnen.



Complete name                            : spy-deadlygames-1080p.mkv
Format                                   : Matroska
Format version                           : Version 4 / Version 2
File size                                : 5.46 GiB
Duration                                 : 1h 31mn
Overall bit rate                         : 8 531 Kbps
Encoded date                             : UTC 2017-12-14 14:48:12
Writing application                      : mkvmerge v17.0.0 ('Be Ur Friend') 64-bit
Writing library                          : libebml v1.3.5 + libmatroska v1.4.8
DURATION                                 : 01:06:18.391000000
NUMBER_OF_FRAMES                         : 11
NUMBER_OF_BYTES                          : 362
_STATISTICS_WRITING_APP                  : mkvmerge v17.0.0 ('Be Ur Friend') 64-bit
_STATISTICS_WRITING_DATE_UTC             : 2017-12-14 14:48:12
_STATISTICS_TAGS                         : BPS DURATION NUMBER_OF_FRAMES NUMBER_OF_BYTES

Video
ID                                       : 1
Format                                   : AVC
Format/Info                              : Advanced Video Codec
Format profile                           : High@L4.1
Format settings, CABAC                   : Yes
Format settings, ReFrames                : 5 frames
Codec ID                                 : V_MPEG4/ISO/AVC
Duration                                 : 1h 31mn
Bit rate                                 : 7 892 Kbps
Width                                    : 1 920 pixels
Height                                   : 1 040 pixels
Display aspect ratio                     : 1.85:1
Frame rate mode                          : Constant
Frame rate                               : 23.976 fps
Color space                              : YUV
Chroma subsampling                       : 4:2:0
Bit depth                                : 8 bits
Scan type                                : Progressive
Bits/(Pixel*Frame)                       : 0.165
Stream size                              : 4.94 GiB (91%)
Writing library                          : x264 core 152 r2851 ba24899
Encoding settings                        : cabac=1 / ref=5 / deblock=1:-1:-1 / analyse=0x3:0x113 / me=umh / subme=7 / psy=1 / psy_rd=1.00:0.00 / mixed_ref=1 / me_range=16 / chroma_me=1 / trellis=1 / 8x8dct=1 / cqm=0 / deadzone=21,11 / fast_pskip=0 / chroma_qp_offset=-2 / threads=12 / lookahead_threads=2 / sliced_threads=0 / nr=0 / decimate=1 / interlaced=0 / bluray_compat=0 / constrained_intra=0 / bframes=3 / b_pyramid=2 / b_adapt=1 / b_bias=0 / direct=3 / weightb=1 / open_gop=0 / weightp=2 / keyint=250 / keyint_min=23 / scenecut=40 / intra_refresh=0 / rc_lookahead=40 / rc=2pass / mbtree=1 / bitrate=7892 / ratetol=1.0 / qcomp=0.60 / qpmin=0 / qpmax=69 / qpstep=4 / cplxblur=20.0 / qblur=0.5 / ip_ratio=1.40 / aq=1:1.00
Default                                  : Yes
Forced                                   : No

Audio
ID                                       : 2
Format                                   : AC-3
Format/Info                              : Audio Coding 3
Mode extension                           : CM (complete main)
Format settings, Endianness              : Big
Codec ID                                 : A_AC3
Duration                                 : 1h 31mn
Bit rate mode                            : Constant
Bit rate                                 : 640 Kbps
Channel(s)                               : 2 channels
Channel positions                        : Front: L R
Sampling rate                            : 48.0 KHz
Bit depth                                : 16 bits
Compression mode                         : Lossy
Stream size                              : 419 MiB (8%)
Language                                 : German
Default                                  : No
Forced                                   : No

Text
ID                                       : 3
Format                                   : UTF-8
Codec ID                                 : S_TEXT/UTF8
Codec ID/Info                            : UTF-8 Plain Text
Language                                 : German
Default                                  : Yes
Forced                                   : Yes





Download:
Share Online Share OnlineShare OnlineShare Online
 

Kommentare