DNS SERVER AENDERNum der staatlichen Zensur zu umgehen. Sollten wir von eurem Provider geseprrt werden, nutzt den TOR BROWSER oder ändert euren DNS SERVER.

Filmwünsche können bei uns im Forum abgegeben werden

Wir Speichern Nicht




 
 
 
Top Releases
Chappie.2015.German.AC3.DL.1...
Solo.A.Star.Wars.Story.2018....
Der.Buchladen.der.Florance.G...
Jurassic.World.2.Das.gefalle...
Jurassic.World.2.Das.gefalle...
Racer.and.the.Jailbird.2017....
Racer.and.the.Jailbird.2017....
Racer.and.the.Jailbird.2017....
The.Girl.on.Train.2016.PROPE...
Solo.A.Star.Wars.Story.2018....

Cinedubs
First.Reformed.German.DL.AC3...
The.First.Purge.2018.German....
No.Way.Out.Gegen.die.Flammen...
First.Reformed.German.DL.AC3...
First.Reformed.German.DL.AC3...
The.First.Purge.German.DL.AC...
The.First.Purge.German.DL.AC...
Book.Club.Das.Beste.kommt.n...
Book.Club.Das.Beste.kommt.n...
Sicario.2.2018.German.AC3MD....

Neuerscheinungen 2017-18
The.Hurricane.Heist.2018.Ger...
Alte.Zoepfe.2018.German.DL.1...
Alte.Zoepfe.2018.German.DL.7...
Gosford.Park.2001.MULTi.COMP...
Steig.Nicht.Aus.2018.German....
Steig.Nicht.Aus.2018.German....
Triassic.World.2018.German.7...
Triassic.World.2018.German.D...
Steig.Nicht.Aus.2018.GERMAN....
Triassic.World.2018.MULTi.CO...

XXX
MeloneChallenge.18.09.08.Wen...
MatureNL.18.09.06.Agness.XXX...
MySistersHotFriend.18.09.07....
Model.Collection.77.XXX.1080...
MilfsLikeItBig.18.09.07.Kayl...
MilfHunter.18.09.10.Ryan.Smi...
Model.Collection.54.XXX.1080...
NFBusty.18.09.07.Bridgette.B...
My.Baby.Got.Back.Whitewashed...
Natsu.No.Omoide.2.XXX.720p.W...
MatureNL.18.09.04.Sarah.Jane...
MonsterCurves.18.09.07.Bridg...
MetArtX.18.09.10.Kitri.Danci...
MyLifeInMiami.18.09.04.Me.An...
NewSensations.18.09.10.Vienn...
MILF.Private.Fantasies.4.XXX...
MelenaMariaRya.18.09.04.Fuck...
Model.Collection.77.XXX.720p...
NewSensations.18.09.07.Baile...
My.Baby.Got.Back.Whitewashed...

3D
Solo.A.Star.Wars.Story.3D.20...
Solo.A.Star.Wars.Story.3D.20...
Die.Biene.Maja.2.Die.Honigsp...
Avengers.Infinity.War.3D.201...
Avengers.Infinity.War.3D.201...
Rampage.Big.Meets.Bigger.3D....
Rampage.Big.Meets.Bigger.3D....
Rampage.Big.Meets.Bigger.3D....
Winter.Games.3D.2013.DUAL.CO...
Tomb.Raider.3D.2018.German.7...
Rampage.Big.Meets.Bigger.3D....
Rampage.Big.Meets.Bigger.3D....
Tomb.Raider.3D.2018.MULTi.CO...
Pacific.Rim.Uprising.3D.2018...
Ready.Player.One.3D.2018.Ger...

Old_Stuff
How.I.Met.Your.Mother.S02.Ge...
Akte.X.S01.German.DTS.DL.108...
Den.Himmel.gibts.echt.DL.108...
Vikings.S02.German.DL.1080p....
Be.Kind.Rewind.Abgedreht.200...
Be.Kind.Rewind.Abgedreht.200...
Dracula.The.Dark.Lord.2012.G...
21.2008.German.DL.1080p.BluR...
Achtung.fertig.WK.Swissgerma...
The.Ouija.Exorcism.2015.MULT...
Meine.liebe.Rabenmutter.germ...
Da.Vincis.Demons.S01.Complet...
Eragon.Das.Vermaechtnis.der....
Adele.und.das.Geheimnis.des....
Die.fabelhafte.Welt.der.Amel...

Filme
Crazy.Ex.Girlfriend.S03.Germ...
Crazy.Ex.Girlfriend.S03.Germ...
Supernatural.S13E01.Abschied...
Supernatural.S13E01.Abschied...
The.Complex.Das.Boese.in.dir...
Junges.Blut.Fuer.Dracula.GER...
Junges.Blut.Fuer.Dracula.GER...
Zu.neuen.Ufern.1937.German.1...
Zu.neuen.Ufern.1937.German.7...
Die.Bruecke.von.Remagen.1969...
Zwei.Weihnachtsmaenner.2008....
G-Force.Agenten.mit.Biss.200...
Good.Bye.Lenin.2003.German.A...
The.Transporter.Refueled.201...
Pulse.1988.German.Dubbed.DL....
Mordrezepte.der.Barbouzes.19...
Homeland.S07.German.DL.1080p...
Homeland.S07.German.DL.720p....
iZombie.S04.German.DD51.Dubb...
iZombie.S04.German.DD51.Dubb...
Akte.X.S02.COMPLETE.German.A...
Das.Geheimnis.von.Green.Lake...
Fackeln.im.Sturm.aka.North.a...
Krieg.der.Eispiraten.-.The.I...

 
 
Manchmal.kommen.sie.wieder.3.1998.GERMAN.DL.1080p.BluRay.x264-UNiVERSUM
Jahr: 1998
Genre: Horror
Sprache: Deutsch DTS | Englisch DTS
Laufzeit: 1h 30mn
Bitrate: 10.2 Mbps
Format: MKV
Größe: 6.39 GiB
Release:

Beschreibung:

Auf dem geheimen Regierungsstützpunkt Erebus in der Antarktis werden zwei Crew-Mitglieder tot aufgefunden. Captain Sam Cage soll zusammen mit Major Callie Wilson die mysteriösen Spuren des Falls untersuchen.
Am Minen-Stützpunkt angekommen, machen sie eine weitere grausame Entdeckung. Der Einsatzleiter liegt erfroren im tiefen Schnee. Sam weigert sich, nach Hilfe zu funken, bevor die Untersuchungen abgeschlossen sind.
Am nächsten Morgen macht Callie sich bereit, in die Mine abzusteigen. Auf einem Monitor kann Sam beobachten, wie Callie plötzlich in die Mine gerissen wird. Anscheinend ist sie sofort tot. Plötzlich sieht sich Sam mit seinem Ende konfrontiert: Die Totgeglaubten kehren aus ihren Gräbern zurück und eröffnen die Jagd auf ihn. Um seine eigene Haut zu retten, muß er Auge in Auge gegen die Abgesandten Satans antreten…



Complete name                            : manchmal.kommen.sie.wieder.3.1998.german.dl.1080p.bluray.x264-universum.mkv
Format                                   : Matroska
Format version                           : Version 4 / Version 2
File size                                : 6.39 GiB
Duration                                 : 1h 30mn
Overall bit rate                         : 10.2 Mbps
Encoded date                             : UTC 2017-12-14 12:28:29
Writing application                      : mkvmerge v7.9.0 ('Birds') 64bit
Writing library                          : libebml v1.3.1 + libmatroska v1.4.2
DURATION                                 : 00:50:50.630000000
NUMBER_OF_FRAMES                         : 9
NUMBER_OF_BYTES                          : 141
_STATISTICS_WRITING_APP                  : mkvmerge v7.9.0 ('Birds') 64bit
_STATISTICS_WRITING_DATE_UTC             : 2017-12-14 12:28:29
_STATISTICS_TAGS                         : BPS DURATION NUMBER_OF_FRAMES NUMBER_OF_BYTES

Video
ID                                       : 1
Format                                   : AVC
Format/Info                              : Advanced Video Codec
Format profile                           : High@L4.1
Format settings, CABAC                   : Yes
Format settings, ReFrames                : 4 frames
Codec ID                                 : V_MPEG4/ISO/AVC
Duration                                 : 1h 30mn
Bit rate                                 : 8 420 Kbps
Width                                    : 1 920 pixels
Height                                   : 1 080 pixels
Display aspect ratio                     : 16:9
Frame rate mode                          : Constant
Frame rate                               : 23.976 fps
Color space                              : YUV
Chroma subsampling                       : 4:2:0
Bit depth                                : 8 bits
Scan type                                : Progressive
Bits/(Pixel*Frame)                       : 0.169
Stream size                              : 5.30 GiB (83%)
Writing library                          : x264 core 152 r2851 ba24899
Encoding settings                        : cabac=1 / ref=4 / deblock=1:-1:-1 / analyse=0x3:0x133 / me=umh / subme=8 / psy=1 / psy_rd=1.00:0.15 / mixed_ref=1 / me_range=16 / chroma_me=1 / trellis=2 / 8x8dct=1 / cqm=0 / deadzone=21,11 / fast_pskip=0 / chroma_qp_offset=-3 / threads=12 / lookahead_threads=2 / sliced_threads=0 / nr=0 / decimate=1 / interlaced=0 / bluray_compat=0 / constrained_intra=0 / bframes=3 / b_pyramid=2 / b_adapt=1 / b_bias=0 / direct=3 / weightb=1 / open_gop=0 / weightp=2 / keyint=250 / keyint_min=23 / scenecut=40 / intra_refresh=0 / rc_lookahead=40 / rc=crf / mbtree=1 / crf=20.0 / qcomp=0.60 / qpmin=10 / qpmax=69 / qpstep=4 / ip_ratio=1.40 / aq=1:1.00
Default                                  : Yes
Forced                                   : No
DURATION                                 : 01:30:04.441000000
NUMBER_OF_FRAMES                         : 129577
NUMBER_OF_BYTES                          : 5822313489
_STATISTICS_WRITING_APP                  : mkvmerge v7.9.0 ('Birds') 64bit
_STATISTICS_WRITING_DATE_UTC             : 2017-12-14 12:28:29
_STATISTICS_TAGS                         : BPS DURATION NUMBER_OF_FRAMES NUMBER_OF_BYTES

Audio #1
ID                                       : 2
Format                                   : DTS
Format/Info                              : Digital Theater Systems
Mode                                     : 16
Format settings, Endianness              : Big
Codec ID                                 : A_DTS
Duration                                 : 1h 30mn
Bit rate mode                            : Constant
Bit rate                                 : 768 Kbps
Channel(s)                               : 2 channels
Channel positions                        : Front: L R
Sampling rate                            : 48.0 KHz
Bit depth                                : 24 bits
Compression mode                         : Lossy
Stream size                              : 495 MiB (8%)
Title                                    : DTS
Language                                 : German
Default                                  : Yes
Forced                                   : No

Audio #2
ID                                       : 3
Format                                   : DTS
Format/Info                              : Digital Theater Systems
Mode                                     : 16
Format settings, Endianness              : Big
Codec ID                                 : A_DTS
Duration                                 : 1h 30mn
Bit rate mode                            : Constant
Bit rate                                 : 768 Kbps
Channel(s)                               : 2 channels
Channel positions                        : Front: L R
Sampling rate                            : 48.0 KHz
Bit depth                                : 24 bits
Compression mode                         : Lossy
Stream size                              : 495 MiB (8%)
Title                                    : DTS
Language                                 : English
Default                                  : No
Forced                                   : No

Text
ID                                       : 4
Format                                   : UTF-8
Codec ID                                 : S_TEXT/UTF8
Codec ID/Info                            : UTF-8 Plain Text
Title                                    : forced
Language                                 : German
Default                                  : Yes
Forced                                   : No


Download:
Share Online Share OnlineShare OnlineShare Online
 

Kommentare