DNS SERVER AENDERNum der staatlichen Zensur zu umgehen. Sollten wir von eurem Provider geseprrt werden, nutzt den TOR BROWSER oder ändert euren DNS SERVER.

Filmwünsche können bei uns im Forum abgegeben werden

Wir Speichern Nicht




 
 
 
Top Releases
Low.Budget.Stuntman.2017.DUA...
Low.Budget.Stuntman.2017.Ger...
Low.Budget.Stuntman.2017.Ger...
Game.Night.2018.MULTI.COMPLE...
God.of.War.2017.MULTi.COMPLE...
God.of.War.2017.German.1080p...
God.of.War.2017.German.720p....
I.Kill.Giants.2017.MULTi.COM...
I.Kill.Giants.2017.German.DL...
I.Kill.Giants.2017.German.72...

Cinedubs
Die.Frau.die.vorausgeht.2017...
Die.Frau.die.vorausgeht.2017...
Super.Troopers.2.2018.German...
Thoroughbreds.2017.German.AC...
Thoroughbreds.2017.German.AC...
Vom.Ende.einer.Geschichte.20...
Vom.Ende.einer.Geschichte.20...
I.Feel.Pretty.2018.German.AC...
I.Feel.Pretty.2018.German.AC...
Wahrheit.oder.Pflicht.UNCUT....

Neuerscheinungen 2017-18
Daemon.Dunkle.Vergangenheit....
Daemon.Dunkle.Vergangenheit....
Shocking.Short.2018.GERMAN.C...
Mein.Freund.die.Giraffe.2017...
Mein.Freund.die.Giraffe.2017...
Mein.Freund.die.Giraffe.2017...
Der.Grosse.Sexwettbewerb.1.2...
Laible.und.Frisch.Do.goht.dr...
Laible.und.Frisch.Do.goht.dr...
Der.Grosse.Sexwettbewerb.201...

XXX
Fitting-Room.18.07.05.Little...
PornMegaLoad.18.07.04.Best.A...
PornMegaLoad.18.07.04.Elle.V...
UltimateSurrender.18.07.04.C...
UpHerAsshole.18.07.05.Anny.A...
AllOver30.18.07.05.Kamila.XX...
ALSScan.18.07.05.Sabina.Roug...
Analized.18.07.05.Candace.Da...
Anilos.18.07.05.Lia.Body.Lan...
Beauty-Angels.18.07.05.Alex....
CastingFrancais.18.07.05.Kim...
DaddysLilAngel.18.07.05.Pepp...
EvilAngel.Jessys.Girls.XXX.1...
EvilAngel.POV.Creampies.XXX....
JeshByJesh.18.07.05.Chanel.P...
MySistersHotFriend.18.07.05....
Nubiles.18.07.05.Amanda.June...
TabooPOV.18.07.05.Sarah.Vand...
ATKGirlfriends.18.07.05.Mega...
BigTitCreamPie.18.07.05.Nina...

3D
Ready.Player.One.2018.3D.HOU...
Ready.Player.One.2018.3D.HSB...
Ready.Player.One.3D.2018.MUL...
Black.Panther.3D.2018.MULTI....
Black.Panther.3D.HOU.2018.Ge...
Black.Panther.3D.HSBS.2018.G...
Best.of.3D.vol.04.-.06.GERMA...
Tomb.Raider.2018.3D.HOU.Germ...
Tomb.Raider.2018.3D.HSBS.Ger...
Tomb.Raider.2018.3D.COMPLETE...
Zombies.Ueberlebe.die.Untote...
Der.Dschungel.Der.Zauber.ein...
Penthouse.Presents.Sexy.Sing...
The.LEGO.Ninjago.Movie.3D.20...
Zombies.Ueberlebe.die.Untote...

Old_Stuff
Meine.liebe.Rabenmutter.germ...
Da.Vincis.Demons.S01.Complet...
Eragon.Das.Vermaechtnis.der....
Adele.und.das.Geheimnis.des....
Die.fabelhafte.Welt.der.Amel...
Haus.des.Geldes.S01.German.M...
How.I.Met.Your.Mother.S01.Ge...
The.Dark.Knight.Rises.2012.M...
Weissensee.S03.2015.GERMAN.C...
Weissensee.S01+S02.2010.GERM...
Die.Unglaublichen.-.The.Incr...
Der.grosse.Trick.1978.German...
Sully.2016.MULTi.COMPLETE.BL...
Tremors.3.Die.neue.Brut.2001...
Die.Indianer.von.Cleveland.2...

Filme
Schneller.als.der.Tod.1995.G...
Double.Vision.-.Fuenf.Hoelle...
Der.Blaue.Max.1966.German.Du...
Fremde.Bettgesellen.1965.Ger...
Sex.Luegen.und.Video.1989.RE...
20.Million.Miles.To.Earth.19...
Scorpion.S04.GERMAN.DUBBED.D...
Ninas.Alibi.1989.German.AC3D...
The.Good.Fight.S02.German.DD...
The.Good.Fight.S02.German.DD...
MacGyver.S02.GERMAN.DUBBED.D...
Samurai.Princess.UNCUT.2009....
The.Equalizer.2014.German.DT...
Versus.UNCUT.2000.German.AC3...
Das.Zeitraetsel.2018.German....
House.on.Haunted.Hill.1999.G...
Mein.Freund.die.Giraffe.2017...
Sorcerer.1977.German.DTSD.10...
Sorcerer.1977.German.DTSD.72...
Barb.Wire.UNRATED.1996.Turbi...
Die.Stadt.der.verlorenen.Kin...
Low.Budget.Stuntman.2017.Ger...
Faberge.Magie.aus.Gold.und.E...
God.of.War.2017.German.DL.10...

 
 
Bigfoot.Junior.3D.2017.German.720p.BluRay.x264-CHECKMATE
Jahr: 2017
Genre: Animation, Komödie
Sprache: Deutsch DTS
Laufzeit: 1h 31mn
Bitrate: 3 935 Kbps
Format: MKV
Größe: 2.52 GiB
Release:

Beschreibung:

Der junge Adam will endlich herausfinden, wer sein Vater ist und macht sich auf die Suche. Die Überraschung ist groß: Es ist der legendäre Bigfoot, der sich jahrelang im Wald versteckt hat, da ein böser Konzern seine besondere DNA für sich nutzen will. Und auch Adam erkennt, dass er außergewöhnliche Superkräfte besitzt. Doch viel gemeinsame Zeit zum Kennenlernen bleibt ihnen nicht, denn zwielichtige Gestalten sind ihnen bereits auf der Spur…



Complete name                            : checkmate-bigfoot.junior.3d.2017.german.720p.bluray.x264.mkv
Format                                   : Matroska
Format version                           : Version 4 / Version 2
File size                                : 2.52 GiB
Duration                                 : 1h 31mn
Overall bit rate                         : 3 935 Kbps
Encoded date                             : UTC 2017-12-14 18:38:09
Writing application                      : mkvmerge v18.0.0 ('Apricity') 64-bit
Writing library                          : libebml v1.3.5 + libmatroska v1.4.8
DURATION                                 : 01:28:53.951000000
NUMBER_OF_FRAMES                         : 12
NUMBER_OF_BYTES                          : 107484
_STATISTICS_WRITING_APP                  : mkvmerge v18.0.0 ('Apricity') 64-bit
_STATISTICS_WRITING_DATE_UTC             : 2017-12-14 18:38:09
_STATISTICS_TAGS                         : BPS DURATION NUMBER_OF_FRAMES NUMBER_OF_BYTES

Video
ID                                       : 1
Format                                   : AVC
Format/Info                              : Advanced Video Codec
Format profile                           : High@L4.1
Format settings, CABAC                   : Yes
Format settings, ReFrames                : 5 frames
Codec ID                                 : V_MPEG4/ISO/AVC
Duration                                 : 1h 31mn
Bit rate                                 : 2 347 Kbps
Width                                    : 1 280 pixels
Height                                   : 536 pixels
Display aspect ratio                     : 2.40:1
Frame rate mode                          : Constant
Frame rate                               : 23.976 fps
Color space                              : YUV
Chroma subsampling                       : 4:2:0
Bit depth                                : 8 bits
Scan type                                : Progressive
Bits/(Pixel*Frame)                       : 0.143
Stream size                              : 1.50 GiB (60%)
Writing library                          : x264 core 152 r2851 ba24899
Encoding settings                        : cabac=1 / ref=5 / deblock=1:-3:-3 / analyse=0x3:0x113 / me=umh / subme=7 / psy=1 / psy_rd=1.00:0.15 / mixed_ref=1 / me_range=16 / chroma_me=1 / trellis=1 / 8x8dct=1 / cqm=0 / deadzone=21,11 / fast_pskip=0 / chroma_qp_offset=-3 / threads=12 / lookahead_threads=2 / sliced_threads=0 / nr=0 / decimate=1 / interlaced=0 / bluray_compat=0 / constrained_intra=0 / bframes=3 / b_pyramid=2 / b_adapt=1 / b_bias=0 / direct=1 / weightb=1 / open_gop=0 / weightp=2 / keyint=250 / keyint_min=23 / scenecut=40 / intra_refresh=0 / rc_lookahead=40 / rc=crf / mbtree=1 / crf=20.0 / qcomp=0.60 / qpmin=0 / qpmax=69 / qpstep=4 / ip_ratio=1.40 / aq=1:1.00
Language                                 : English
Default                                  : Yes
Forced                                   : No
DURATION                                 : 01:31:45.955000000
NUMBER_OF_FRAMES                         : 132011
NUMBER_OF_BYTES                          : 1667858535
_STATISTICS_WRITING_APP                  : mkvmerge v18.0.0 ('Apricity') 64-bit
_STATISTICS_WRITING_DATE_UTC             : 2017-12-14 18:38:09
_STATISTICS_TAGS                         : BPS DURATION NUMBER_OF_FRAMES NUMBER_OF_BYTES

Audio
ID                                       : 2
Format                                   : DTS
Format/Info                              : Digital Theater Systems
Mode                                     : 16
Format settings, Endianness              : Big
Codec ID                                 : A_DTS
Duration                                 : 1h 31mn
Bit rate mode                            : Constant
Bit rate                                 : 1 509 Kbps
Channel(s)                               : 6 channels
Channel positions                        : Front: L C R, Side: L R, LFE
Sampling rate                            : 48.0 KHz
Bit depth                                : 24 bits
Compression mode                         : Lossy
Stream size                              : 990 MiB (38%)
Language                                 : German
Default                                  : Yes
Forced                                   : No

Text
ID                                       : 3
Format                                   : VobSub
Muxing mode                              : zlib
Codec ID                                 : S_VOBSUB
Codec ID/Info                            : The same subtitle format used on DVDs
Language                                 : German
Default                                  : Yes
Forced                                   : Yes


Download:
Share Online Share OnlineShare OnlineShare Online
 

Kommentare