Filmwünsche können bei uns im Forum abgegeben werden

Wir Speichern Nicht




 
 
 
Top Releases
Logan.The.Wolverine.2017.Ger...
Logan.The.Wolverine.2017.Ger...
Dunkirk.2017.German.DL.2160p...
Cars.3.2017.multi.complete.B...
Mother.2017.German.AC3.DL.10...
Kingsman.The.Golden.Circle.2...
Logan.Lucky.2017.German.DL.1...
Spiderman.3.2007.German.DL.1...
Das.Bourne.Vermaechtnis.2012...
Iron.Man.2.2010.German.DL.21...

Cinedubs
Jigsaw.2017.German.AC3D.DL.7...
Jigsaw.2017.German.AC3D.DL.1...
Geostorm.2017.German.AC3MD.D...
Geostorm.2017.German.AC3MD.D...
The.LEGO.Ninjago.Movie.Germa...
The.LEGO.Ninjago.Movie.Germa...
Jigsaw.German.MD.DL.1080p.WE...
Jigsaw.German.MD.DL.720p.WEB...
Star.Wars.Episode.VIII.Die.l...
Bad.Moms.2.German.MD.DL.1080...

Neuerscheinungen 2017-18
Tigermilch.2017.GERMAN.720p....
Ich.einfach.unverbesserlich....
The.Prestige.2006.COMPLETE.U...
Men.in.Black.1997.COMPLETE.U...
The.Dark.Knight.2008.COMPLET...
November.Criminals.2017.Germ...
November.Criminals.2017.Germ...
November.Criminals.2017.Germ...
Beyond.Skyline.2017.German.A...
Der.Polkakoenig.2017.German....

XXX
BigTitsRoundAsses.18.01.11.V...
BigNaturals.18.01.10.Ella.Kn...
Bang.Europe.63.XXX.1080p.WEB...
21Naturals.18.01.10.Lexi.Lay...
WankItNow.18.01.11.Tammie.Le...
VivThomas.18.01.10.Cristal.C...
AllOver30.18.01.11.Mulatka.X...
Nubiles.18.01.10.Darcy.Rosa....
Nubiles.18.01.09.Sicilia.Yog...
VickyAtHome.16.10.28.6.Girl....
BangBros18.18.01.09.Tiffany....
WcpClub.17.06.16.Selena.Sant...
BigGulpGirls.18.01.09.Aspen....
WankItNow.18.01.10.Natalia.F...
VickyAtHome.16.11.04.Rubberd...
WcpClub.17.06.09.Angela.Whit...
AutoescuelaCumlouder.18.01.1...
Boobs.Exposed.6.XXX.1080p.WE...
1By-Day.18.01.10.Ellen.Betsy...
VickyAtHome.16.12.23.Reagan....

3D
Ares.2016.3D.HOU.German.1080...
Guardians.Of.The.Galaxy.Vol....
Ares.3D.2016.German.720p.Blu...
Ares.3D.2016.German.1080p.Bl...
El.Americano.Kleiner.Superhe...
Best.of.3D.vol.01.-.03.GERMA...
Pete.Smalls.is.Dead.3D.2010....
Baymax.Riesiges.Robowabohu.2...
Bigfoot.Junior.3D.2017.GERMA...
Bigfoot.Junior.3D.2017.Germa...
Bigfoot.Junior.3D.2017.Germa...
El.Americano.Kleiner.Superhe...
El.Americano.Kleiner.Superhe...
Walhalla.Rising.3D.2009.Germ...
Spider.Man.Homecoming.3D.Ger...

Old_Stuff
American.Sniper.2014.MULTi.C...
Hana-bi.Feuerblume.1997.Germ...
Memphis.Belle.1990.German.DL...
Im.Schatten.des.Mondes.Germa...
Tomb.Raider.2001.DUAL.COMPLE...
Tomb.Raider.Die.Wiege.des.Le...
Party.Animals.3.German.AC3.7...
The.Rocky.Horror.Picture.Sho...
Die.Fliege.1986.German.DTS.1...
Mimic.2.2001.German.DD5.1D.D...
The.Tournament.UNCUT.2009.Ge...
Dr.House.S08.German.720p.Blu...
Dr.House.S07.German.720p.Blu...
Dr.House.S06.German.720p.Blu...
Dr.House.S05.German.720p.Blu...

Filme
NCIS.Los.Angeles.S08.GERMAN....
Star.Wars.The.Complete.Saga....
Young.Sheldon.S01.GERMAN.DUB...
Young.Sheldon.S01.GERMAN.DUB...
Day.of.the.Animals.1977.Germ...
Day.of.the.Animals.1977.Germ...
Men.in.Black.II.2002.COMPLET...
Die.Eisprinzen.2007.German.1...
100.000.Dollar.in.der.Sonne....
The.Crypt.Gruft.Des.Grauens....
Verlockende.Falle.-.Entrapme...
Austenland.German.DL.1080p.B...
Star.Trek.Discovery.S01.Germ...
Austenland.German.720p.BluRa...
Boomerang.Uncut.1992.German....
Splash.-.Eine.Jungfrau.am.Ha...
Highway.to.Hellas.2015.Germa...
Harry.Potter.und.der.Gefange...
GoodFellas.Drei.Jahrzehnte.i...
Der.Manchurian.Kandidat.2004...
Die.Bruecke.1959.German.REMA...
Die.Bruecke.1959.German.REMA...
Supernatural.S12.GERMAN.DUBB...
Supernatural.S12.GERMAN.DUBB...

 
 
El.Chapo.S02.COMPLETE.German.Dubbed.DL.720p.WEB.x264-BiGiNT
Jahr: 2017
Genre: Drama
Sprache: Deutsch AC3 | Englisch AC3
Laufzeit: 52min je Folge
Bitrate: 2100 Kbps
Format: MKV
Größe: 1,1 GB je Folge
Release:

Beschreibung:

Der Mexikaner Joaquín Guzmán, auch „El Chapo“ genannt, ist einer der berühmt-berüchtigsten Kriminellen der Welt und war lange Zeit der meistgesuchte Drogenboss in Mexiko und den USA. Diese Drama-Serie zeichnet sein Leben und seine Aktivitäten im Drogenhandel nach.



General
Complete name                            : El.Chapo.S02E01.German.Dubbed.DL.720p.WEB.x264-BiGiNT\el.chapo.s02e01.german.dubbed.dl.720p.web.x264-bigint.mkv
Format                                   : Matroska
Format version                           : Version 4 / Version 2
File size                                : 1.05 GiB
Duration                                 : 52mn 27s
Overall bit rate mode                    : Variable
Overall bit rate                         : 2 878 Kbps
Encoded date                             : UTC 2017-12-08 12:13:17
Writing application                      : mkvmerge v13.0.0 ('The Juggler') 64bit
Writing library                          : Lavf58.0.0
DURATION                                 : 00:51:03.268000000
NUMBER_OF_FRAMES                         : 450
NUMBER_OF_BYTES                          : 15814
_STATISTICS_WRITING_APP                  : mkvmerge v13.0.0 ('The Juggler') 64bit
_STATISTICS_WRITING_DATE_UTC             : 2017-12-15 08:40:27
_STATISTICS_TAGS                         : BPS DURATION NUMBER_OF_FRAMES NUMBER_OF_BYTES

Video
ID                                       : 1
Format                                   : AVC
Format/Info                              : Advanced Video Codec
Format profile                           : Main@L3.1
Format settings, CABAC                   : Yes
Format settings, ReFrames                : 3 frames
Codec ID                                 : V_MPEG4/ISO/AVC
Duration                                 : 52mn 27s
Bit rate mode                            : Variable
Bit rate                                 : 2 150 Kbps
Maximum bit rate                         : 3 225 Kbps
Width                                    : 1 280 pixels
Height                                   : 720 pixels
Display aspect ratio                     : 16:9
Frame rate mode                          : Constant
Frame rate                               : 23.976 fps
Color space                              : YUV
Chroma subsampling                       : 4:2:0
Bit depth                                : 8 bits
Scan type                                : Progressive
Bits/(Pixel*Frame)                       : 0.097
Stream size                              : 770 MiB (71%)
Writing library                          : x264 core 148
Encoding settings                        : cabac=1 / ref=3 / deblock=1:0:0 / analyse=0x1:0x111 / me=umh / subme=10 / psy=1 / psy_rd=1.00:0.00 / mixed_ref=1 / me_range=24 / chroma_me=1 / trellis=2 / 8x8dct=0 / cqm=0 / deadzone=21,11 / fast_pskip=1 / chroma_qp_offset=-2 / threads=8 / lookahead_threads=1 / sliced_threads=0 / nr=0 / decimate=1 / interlaced=0 / bluray_compat=0 / stitchable=1 / constrained_intra=0 / bframes=2 / b_pyramid=0 / b_adapt=2 / b_bias=0 / direct=3 / weightb=1 / open_gop=0 / weightp=2 / keyint=48 / keyint_min=25 / scenecut=0 / intra_refresh=0 / rc_lookahead=48 / rc=2pass / mbtree=1 / bitrate=2150 / ratetol=1.0 / qcomp=0.50 / qpmin=6 / qpmax=51 / qpstep=4 / cplxblur=20.0 / qblur=0.5 / vbv_maxrate=3225 / vbv_bufsize=4300 / nal_hrd=vbr / filler=0 / ip_ratio=1.40 / aq=1:1.00
Default                                  : Yes
Forced                                   : No
Encoded date                             : UTC 2017-12-08 12:13:17
HANDLER_NAME                             : Audio Media Handler
DURATION                                 : 00:52:27.680000000
NUMBER_OF_FRAMES                         : 98365
NUMBER_OF_BYTES                          : 151088640
_STATISTICS_WRITING_APP                  : mkvmerge v13.0.0 ('The Juggler') 64bit
_STATISTICS_WRITING_DATE_UTC             : 2017-12-15 08:40:27
_STATISTICS_TAGS                         : BPS DURATION NUMBER_OF_FRAMES NUMBER_OF_BYTES

Audio #1
ID                                       : 2
Format                                   : AC-3
Format/Info                              : Audio Coding 3
Mode extension                           : CM (complete main)
Format settings, Endianness              : Big
Codec ID                                 : A_AC3
Duration                                 : 52mn 27s
Bit rate mode                            : Constant
Bit rate                                 : 384 Kbps
Channel(s)                               : 6 channels
Channel positions                        : Front: L C R, Side: L R, LFE
Sampling rate                            : 48.0 KHz
Bit depth                                : 16 bits
Compression mode                         : Lossy
Stream size                              : 144 MiB (13%)
Language                                 : German
Default                                  : Yes
Forced                                   : No

Audio #2
ID                                       : 3
Format                                   : AC-3
Format/Info                              : Audio Coding 3
Mode extension                           : CM (complete main)
Format settings, Endianness              : Big
Codec ID                                 : A_AC3
Duration                                 : 52mn 27s
Bit rate mode                            : Constant
Bit rate                                 : 384 Kbps
Channel(s)                               : 6 channels
Channel positions                        : Front: L C R, Side: L R, LFE
Sampling rate                            : 48.0 KHz
Bit depth                                : 16 bits
Compression mode                         : Lossy
Stream size                              : 144 MiB (13%)
Language                                 : English
Default                                  : No
Forced                                   : No

Text #1
ID                                       : 4
Format                                   : UTF-8
Codec ID                                 : S_TEXT/UTF8
Codec ID/Info                            : UTF-8 Plain Text
Title                                    : Forced
Language                                 : German
Default                                  : Yes
Forced                                   : Yes

Text #2
ID                                       : 5
Format                                   : UTF-8
Codec ID                                 : S_TEXT/UTF8
Codec ID/Info                            : UTF-8 Plain Text
Title                                    : German
Language                                 : German
Default                                  : No
Forced                                   : No

Text #3
ID                                       : 6
Format                                   : UTF-8
Codec ID                                 : S_TEXT/UTF8
Codec ID/Info                            : UTF-8 Plain Text
Title                                    : English (Forced)
Language                                 : English
Default                                  : No
Forced                                   : No

Text #4
ID                                       : 7
Format                                   : UTF-8
Codec ID                                 : S_TEXT/UTF8
Codec ID/Info                            : UTF-8 Plain Text
Title                                    : English
Language                                 : English
Default                                  : No
Forced                                   : No



Download:
Share-Online.biz Share-Online.bizShare-Online.bizShare-Online.biz | Rapidgator.net Rapidgator.netRapidgator.netRapidgator.net
 

Kommentare

  1. Geschrieben am 16. December 2017, 14:30 Uhr von pix · #

    Fehler beim entpacken

    / Schreib noch weniger. Nicht, dass wir etwas erfahren, um zu helfen. :(
    Copy & past mal die Fehlermeldung, die RAR 5.x ausgibt.
  2. Geschrieben am 18. December 2017, 13:32 Uhr von Jackson · #

    moin… auch ich habe probleme die datein zu entpacken… da ich einer von denen bin die wirklich keine ahnung davon haben kann ich dir auch leider nicht sagen woran es eventuell liegen könnte. gruß

    / Meine Frage beinhaltet die Antwort. Entpacke es mit RAR 5.x. Keine Ahnung....