HD-AREA wünscht Euch eine besinnliche Weihnachtszeit ;)

DNS SERVER AENDERNum der staatlichen Zensur zu umgehen. Sollten wir von eurem Provider geseprrt werden, nutzt den TOR BROWSER oder ändert euren DNS SERVER.

Filmwünsche können bei uns im Forum abgegeben werden

Wir Speichern Nicht




 
 
 
Top Releases
The.Hateful.8.2015.German.AC...
Der.Unsichtbare.Gast.2016.Ge...
BlacKkKlansman.2018.German.A...
Von.Loewen.und.Laemmern.2007...
Von.Loewen.und.Laemmern.2007...
Von.Loewen.und.Laemmern.2007...
Braven.2018.German.AC3.DL.10...
The.Last.Movie.Star.2017.DUA...
The.Infiltrator.2016.German....
The.Equalizer.2.2018.German....

Cinedubs
Phantastische.Tierwesen.Grin...
Phantastische.Tierwesen.Grin...
The.Guilty.2018.German.AC3D....
The.Guilty.2018.German.AC3D....
Aufbruch.zum.Mond.German.DL....
Aufbruch.zum.Mond.German.DL....
Night.School.2018.GERMAN.DL....
Night.School.2018.GERMAN.DL....
Gaensehaut.2.Gruseliges.Hall...
Gaensehaut.2.Gruseliges.Hall...

Neuerscheinungen 2017-18
They.Shall.Not.Grow.Old.2018...
Death.Kiss.2018.Uncut.German...
Pyewacket.Toedlicher.Fluch.2...
Leben.Und.Sterben.In.L.A.REM...
The.Running.Man.-.Limited.Co...
Alarmstufe.Rot.2.Under.Siege...
Egal.was.kommt.2018.GERMAN.D...
Occupation.2018.GERMAN.DL.10...
Campus.Killer.Das.Boese.Kehr...
Campus.Killer.Das.Boese.Kehr...

XXX
ATKHairy.18.12.09.Selesta.XX...
1By-Day.18.12.12.Amber.Jayne...
ATKHairy.18.12.08.Isabel.Ste...
ATKHairy.18.12.10.Bella.Dahl...
1000Facials.18.12.10.Scarlet...
AnalTeenAngels.18.12.11.Stel...
Bang.RealMILFs.18.12.11.Ryde...
AllGirlMassage.18.12.10.Broo...
AmateurCFNM.18.12.11.Mandy.S...
Analized.18.12.07.Victoria.P...
AuntJudys.18.12.07.Nurse.Nat...
Anilos.18.12.10.Kayla.Green....
AbbyWinters.18.12.11.Sarah.Q...
AdultTime.18.12.11.India.Sum...
ATKGirlfriends.18.12.10.Dann...
BCM.18.12.10.Christie.Steven...
Babes.18.12.12.Nia.Nacci.Hea...
ALSScan.18.12.12.Sonia.Red.C...
AllInternal.18.12.10.Ally.St...
AuntJudys.18.12.10.Callidica...

3D
Meg.3D.2018.MULTi.COMPLETE.B...
Meg.3D.2018.German.DL.1080p....
Gans.im.Glueck.3D.2018.MULTi...
The.Art.of.Flight.3D.2011.Ge...
The.End.Of.The.World.3D.2010...
The.First.Avenger.Civil.War....
Die.Unglaublichen.2.2018.3D....
Skyscraper.3D.2018.MULTi.COM...
Ant-Man.And.The.Wasp.3D.2018...
Ant.Man.and.the.Wasp.3D.2018...
Die.Unglaublichen.2.3D.2018....
Die.Unglaublichen.2.2018.3D....
Die.Unglaublichen.2.2018.3D....
Sharknado.6.The.Last.One.3D....
Deep.Kleine.Helden.der.Tiefs...

Old_Stuff
Akte.X.S04.German.DTS.DL.108...
Akte.X.S03.German.DTS.DL.108...
Dunkirk.1958.COMPLETE.BLURAY...
Das.Wunder.von.Manhattan.199...
The.Amazing.Spiderman.2.Rise...
Rise.of.the.Predator.2014.Ge...
Detective.Dee.und.das.Geheim...
Detective.Dee.Und.Der.Fluch....
Ghost.Rider.Spirit.of.Vengea...
Species.IV.Das.Erwachen.2007...
Species.IV.Das.Erwachen.2007...
Hotel.Transsilvanien.2012.Ge...
The.Dead.2010.German.DL.1080...
The.Dead.2.India.2013.German...
Britney.Spears.Live.The.Femm...

Filme
The.Lost.Boys.1987.German.AC...
Respire.Halt.den.Atem.an.201...
Restitution.2011.German.DL.1...
Resurrection.County.2008.Ger...
Incubus.Moerderische.Traeume...
Hachiko.Eine.wunderbare.Freu...
Ohne.Schuld.2008.German.AC3....
Untraceable.2008.German.AC3....
Willkommen.im.Sueden.2010.Ge...
Snatch.S02.German.DL.DUBBED....
Snatch.S02.German.DL.DUBBED....
12.Monkeys.S03.COMPLETE.GERM...
12.Monkeys.S03.COMPLETE.GERM...
Criminal.Minds.S13.COMPLETE....
Once.Upon.a.Time.S07.German....
Once.Upon.a.Time.S07.German....
Ice.S02.GERMAN.DL.1080p.HDTV...
Ice.S02.GERMAN.DL.720p.HDTV....
Die.purpurnen.Fluesse.The.Cr...
Quantico.S03.GERMAN.DL.DUBBE...
Quantico.S03.GERMAN.DUBBED.7...
Venom.2018.German.AC3D.5.1.D...
Ray.Donovan.S06.GERMAN.DUBBE...
Ray.Donovan.S06.GERMAN.DUBBE...

 
 
The.Frankenstein.Chronicles.S02.GERMAN.DL.1080p.HDTV.h264-WiSHTV
Jahr: 2017
Genre: Krimi | Drama | Mystery
Sprache: Deutsch AC3 | Englisch AC3
Laufzeit: 44min je Folge
Bitrate: 4000 Kbps
Format: MKV
Größe: 1,5 GB je Folge
Release:

Beschreibung:

In der Mystery-Serie The Frankenstein Chronicles steht der erfahrene und mit allen Wassern gewaschene Inspector John Marlott im Mittelpunkt des Geschehens, der Anfang des 19. Jahrhunderts in London seiner Pflicht als Gesetzeshüter nachgeht. Jedoch wird er schon bald von der britischen Regierung für einen besonderen Fall verpflichtet, der die Realtität mit den übernatürlichen Vorkommnissen der Londoner Unterwelt vermischt. Dabei stößt Marlott auf einige abscheuliche Entdeckungen, die ihm das Blut in den Adern gefrieren lassen.

 

enthaltene Folgen:

The.Frankenstein.Chronicles.S02E01.GERMAN.DL.1080p.HDTV.h264-WiSHTV

The.Frankenstein.Chronicles.S02E02.GERMAN.DL.1080p.HDTV.h264-WiSHTV

The.Frankenstein.Chronicles.S02E03.GERMAN.DL.1080p.HDTV.h264-WiSHTV 

The.Frankenstein.Chronicles.S02E04.GERMAN.DL.1080p.HDTV.h264-WiSHTV

The.Frankenstein.Chronicles.S02E05.GERMAN.DL.1080p.HDTV.h264-WiSHTV NEU

The.Frankenstein.Chronicles.S02E06.GERMAN.DL.1080p.HDTV.h264-WiSHTV NEU



General
Complete name                            : The.Frankenstein.Chronicles.S02E01.GERMAN.DL.1080p.HDTV.h264-WiSHTV\wtv-frankensteinchronicles-s02e01-1080p.mkv
Format                                   : Matroska
Format version                           : Version 4 / Version 2
File size                                : 1.51 GiB
Duration                                 : 44mn 9s
Overall bit rate mode                    : Variable
Overall bit rate                         : 4 891 Kbps
Encoded date                             : UTC 2017-12-28 00:06:46
Writing application                      : mkvmerge v9.3.1 ('Mask Machine') 64bit
Writing library                          : libebml v1.3.4 + libmatroska v1.4.5
DURATION                                 : 00:44:09.504000000
NUMBER_OF_FRAMES                         : 82797
NUMBER_OF_BYTES                          : 127176192
_STATISTICS_WRITING_APP                  : mkvmerge v9.3.1 ('Mask Machine') 64bit
_STATISTICS_WRITING_DATE_UTC             : 2017-12-28 00:06:46
_STATISTICS_TAGS                         : BPS DURATION NUMBER_OF_FRAMES NUMBER_OF_BYTES

Video
ID                                       : 1
Format                                   : AVC
Format/Info                              : Advanced Video Codec
Format profile                           : High@L4.0
Format settings, CABAC                   : Yes
Format settings, ReFrames                : 4 frames
Codec ID                                 : V_MPEG4/ISO/AVC
Duration                                 : 44mn 9s
Bit rate mode                            : Variable
Bit rate                                 : 4 025 Kbps
Maximum bit rate                         : 40.0 Mbps
Width                                    : 1 920 pixels
Height                                   : 1 080 pixels
Display aspect ratio                     : 16:9
Frame rate mode                          : Constant
Frame rate                               : 25.000 fps
Standard                                 : Component
Color space                              : YUV
Chroma subsampling                       : 4:2:0
Bit depth                                : 8 bits
Scan type                                : Interlaced
Scan order                               : Top Field First
Bits/(Pixel*Frame)                       : 0.078
Stream size                              : 1.24 GiB (82%)
Language                                 : German
Default                                  : Yes
Forced                                   : No
Color primaries                          : BT.709
Transfer characteristics                 : BT.709
Matrix coefficients                      : BT.709

Audio #1
ID                                       : 2
Format                                   : AC-3
Format/Info                              : Audio Coding 3
Mode extension                           : CM (complete main)
Format settings, Endianness              : Big
Codec ID                                 : A_AC3
Duration                                 : 44mn 9s
Bit rate mode                            : Constant
Bit rate                                 : 384 Kbps
Channel(s)                               : 6 channels
Channel positions                        : Front: L C R, Side: L R, LFE
Sampling rate                            : 48.0 KHz
Bit depth                                : 16 bits
Compression mode                         : Lossy
Delay relative to video                  : 176ms
Stream size                              : 121 MiB (8%)
Title                                    : ac3
Language                                 : German
Default                                  : Yes
Forced                                   : No

Audio #2
ID                                       : 3
Format                                   : AC-3
Format/Info                              : Audio Coding 3
Mode extension                           : CM (complete main)
Format settings, Endianness              : Big
Codec ID                                 : A_AC3
Duration                                 : 44mn 9s
Bit rate mode                            : Constant
Bit rate                                 : 384 Kbps
Channel(s)                               : 2 channels
Channel positions                        : Front: L R
Sampling rate                            : 48.0 KHz
Bit depth                                : 16 bits
Compression mode                         : Lossy
Delay relative to video                  : 176ms
Stream size                              : 121 MiB (8%)
Title                                    : ac3
Language                                 : English
Default                                  : No
Forced                                   : No



Download:
Share-Online.biz Share-Online.bizShare-Online.bizShare-Online.biz | Rapidgator.net Rapidgator.netRapidgator.netRapidgator.net
 

Kommentare