Filmwünsche können bei uns im Forum abgegeben werden

Wir Speichern Nicht




 
 
 
Top Releases
Loving.Vincent.2017.COMPLETE...
Mother.2017.MULTI.COMPLETE.B...
Mother.2017.German.DL.2160p....
I.Remember.You.2017.German.D...
I.Remember.You.2017.MULTi.CO...
I.Remember.You.2017.German.1...
I.Remember.You.2017.German.7...
Better.Watch.Out.2016.GERMAN...
Better.Watch.Out.2016.MULTi....
Men.in.Black.3.2012.COMPLETE...

Cinedubs
Blade.Runner.2049.2017.Germa...
Jigsaw.2017.German.AC3D.DL.7...
Jigsaw.2017.German.AC3D.DL.1...
Geostorm.2017.German.AC3MD.D...
Geostorm.2017.German.AC3MD.D...
The.LEGO.Ninjago.Movie.Germa...
The.LEGO.Ninjago.Movie.Germa...
Jigsaw.German.MD.DL.1080p.WE...
Jigsaw.German.MD.DL.720p.WEB...
Star.Wars.Episode.VIII.Die.l...

Neuerscheinungen 2017-18
Das.Morgan.Projekt.4K.2016.m...
5.Seasons.UNCUT.GERMAN.2015....
5.Seasons.UNCUT.GERMAN.2015....
Batman.Begins.2005.MULTi.COM...
Tigermilch.2017.GERMAN.COMPL...
Tigermilch.2017.GERMAN.1080p...
Tigermilch.2017.GERMAN.720p....
Ich.einfach.unverbesserlich....
The.Prestige.2006.COMPLETE.U...
Men.in.Black.1997.COMPLETE.U...

XXX
JulesJordan.18.01.10.Olivia....
LukeHardyXXX.17.02.08.Sophie...
PornDoePedia.18.01.10.Apolon...
LethalHardcore.Schoolgirls.I...
RKPrime.18.01.11.Karlee.Grey...
LukeHardyXXX.17.05.24.Gina.S...
PornMegaLoad.18.01.09.Kamill...
PornoAcademie.18.01.09.Tina....
LukeHardyXXX.17.02.22.Lois.L...
PureMature.18.01.10.Brandi.L...
HotLegsAndFeet.18.01.09.Jenn...
From.Teen.Ass.To.Teen.Mouth....
GirlsOutWest.18.01.09.Joy.XX...
LukeHardyXXX.17.03.01.Sophie...
PornMegaLoad.18.01.08.Brandy...
FakeTaxi.18.01.10.Lilyan.Red...
JamesDeen.18.01.09.Wednesday...
IKnowThatGirl.18.01.10.Whitn...
GirlsOutWest.18.01.08.Aubrey...
PornMegaLoad.18.01.10.April....

3D
Cars.3.3D.2017.multi.complet...
Cars.3.Evolution.3D.HSBS.201...
Cars.3.Evolution.3D.HOU.2017...
Ares.2016.3D.HOU.German.1080...
Guardians.Of.The.Galaxy.Vol....
Ares.3D.2016.German.720p.Blu...
Ares.3D.2016.German.1080p.Bl...
El.Americano.Kleiner.Superhe...
Best.of.3D.vol.01.-.03.GERMA...
Pete.Smalls.is.Dead.3D.2010....
Baymax.Riesiges.Robowabohu.2...
Bigfoot.Junior.3D.2017.GERMA...
Bigfoot.Junior.3D.2017.Germa...
Bigfoot.Junior.3D.2017.Germa...
El.Americano.Kleiner.Superhe...

Old_Stuff
American.Sniper.2014.MULTi.C...
Hana-bi.Feuerblume.1997.Germ...
Memphis.Belle.1990.German.DL...
Im.Schatten.des.Mondes.Germa...
Tomb.Raider.2001.DUAL.COMPLE...
Tomb.Raider.Die.Wiege.des.Le...
Party.Animals.3.German.AC3.7...
The.Rocky.Horror.Picture.Sho...
Die.Fliege.1986.German.DTS.1...
Mimic.2.2001.German.DD5.1D.D...
The.Tournament.UNCUT.2009.Ge...
Dr.House.S08.German.720p.Blu...
Dr.House.S07.German.720p.Blu...
Dr.House.S06.German.720p.Blu...
Dr.House.S05.German.720p.Blu...

Filme
Zoo.S03.GERMAN.DUBBED.DL.108...
Ballers.S03.COMPLETE.German....
Vikings.S05.German.DD+51.DL....
Vikings.S05.German.DD+51.DL....
Zoo.S03.GERMAN.DUBBED.DL.720...
Die.Simpsons.S28.GERMAN.DUBB...
Die.Simpsons.S28.GERMAN.DUBB...
That.Thing.You.Do.1996.EXTEN...
Local.Hero.1983.German.AC3D....
Die.Fuerchterliche.Furcht.Vo...
Dragonwolf.2012.German.DL.10...
Carolin.Kebekus.Alpha.Pussy....
Wake.Of.Death.Uncut.Black.Ed...
Wake.of.Death.Uncut.2004.Ger...
Skinny.Tiger.and.Fatty.Drago...
I.Am.David.2003.German.AC3D....
I.Am.David.2003.German.AC3D....
Sirene.1.-.The.Rift.1990.Ger...
Die.Nacht.der.Abenteuer.1987...
Ich.liebe.Dich.zu.Tode.1990....
Ice.Age.5.Kollision.voraus.4...
Spion.in.Spitzenhoeschen.196...
The.Tempest.2010.German.DTS....
The.Tempest.2010.German.DTS....

 
 
Planet.Erde.II.-.Eine.Erde.viele.Welten.S02.COMPLETE.German.DL.DOKU.1080p.BluRay.x264-UTOPiA
Jahr: 2016
Genre: Dokumentation
Sprache: Deutsch DTS | Englisch DTS
Laufzeit: 51min je Folge
Bitrate: 11 Mbps
Format: MKV
Größe: 5 GB je Folge
Release:

Beschreibung:

Planet Erde II nimmt uns näher mit heran als jemals zuvor, fängt überraschende Verhaltensweisen und außergewöhnliche Orte ein, die vor zehn Jahren unerreichbar gewesen sind. Zusätzlich widmet sich die Serie einem neuen Lebensraum: Zum ersten Mal legt eine richtungsweisende Naturdokumentation ihr Augenmerk in einer Episode auf die Großstadt und die verblüffenden Überlebensstrategien von Tieren im Großstadtdschungel.



General
Complete name                            : Planet.Erde.II.-.Eine.Erde.viele.Welten.S02E01.Inseln.German.DL.DOKU.1080p.BluRay.x264-UTOPiA\utopia-planet.erde.ii.s02e01-1080p.mkv
Format                                   : Matroska
Format version                           : Version 2
File size                                : 5.07 GiB
Duration                                 : 50mn 49s
Overall bit rate                         : 14.3 Mbps
Encoded date                             : UTC 2017-02-07 23:42:22
Writing application                      : mkvmerge v9.8.0 ('Kuglblids') 64bit
Writing library                          : libebml v1.3.4 + libmatroska v1.4.5
DURATION                                 : 00:50:49.803000000
NUMBER_OF_FRAMES                         : 285919
NUMBER_OF_BYTES                          : 575270012
_STATISTICS_WRITING_APP                  : mkvmerge v9.8.0 ('Kuglblids') 64bit
_STATISTICS_WRITING_DATE_UTC             : 2017-02-07 23:42:22
_STATISTICS_TAGS                         : BPS DURATION NUMBER_OF_FRAMES NUMBER_OF_BYTES

Video
ID                                       : 1
Format                                   : AVC
Format/Info                              : Advanced Video Codec
Format profile                           : High@L4.1
Format settings, CABAC                   : Yes
Format settings, ReFrames                : 4 frames
Codec ID                                 : V_MPEG4/ISO/AVC
Duration                                 : 50mn 49s
Bit rate                                 : 11.0 Mbps
Width                                    : 1 920 pixels
Height                                   : 1 080 pixels
Display aspect ratio                     : 16:9
Frame rate mode                          : Constant
Frame rate                               : 25.000 fps
Color space                              : YUV
Chroma subsampling                       : 4:2:0
Bit depth                                : 8 bits
Scan type                                : Progressive
Bits/(Pixel*Frame)                       : 0.212
Stream size                              : 3.90 GiB (77%)
Writing library                          : x264 core 148 r2744 b97ae06
Encoding settings                        : cabac=1 / ref=4 / deblock=1:-3:-3 / analyse=0x3:0x113 / me=umh / subme=7 / psy=1 / psy_rd=1.00:0.00 / mixed_ref=1 / me_range=16 / chroma_me=1 / trellis=1 / 8x8dct=1 / cqm=0 / deadzone=21,11 / fast_pskip=0 / chroma_qp_offset=-2 / threads=12 / lookahead_threads=2 / sliced_threads=0 / nr=0 / decimate=1 / interlaced=0 / bluray_compat=0 / constrained_intra=0 / bframes=3 / b_pyramid=2 / b_adapt=1 / b_bias=0 / direct=1 / weightb=1 / open_gop=0 / weightp=2 / keyint=250 / keyint_min=25 / scenecut=40 / intra_refresh=0 / rc_lookahead=40 / rc=crf / mbtree=1 / crf=20.0 / qcomp=0.60 / qpmin=10 / qpmax=69 / qpstep=4 / ip_ratio=1.40 / aq=1:1.00
Default                                  : Yes
Forced                                   : No

Audio #1
ID                                       : 2
Format                                   : DTS
Format/Info                              : Digital Theater Systems
Mode                                     : 16
Format settings, Endianness              : Big
Codec ID                                 : A_DTS
Duration                                 : 50mn 49s
Bit rate mode                            : Constant
Bit rate                                 : 1 509 Kbps
Channel(s)                               : 6 channels
Channel positions                        : Front: L C R, Side: L R, LFE
Sampling rate                            : 48.0 KHz
Bit depth                                : 24 bits
Compression mode                         : Lossy
Stream size                              : 549 MiB (11%)
Title                                    : German
Language                                 : German
Default                                  : Yes
Forced                                   : No

Audio #2
ID                                       : 3
Format                                   : DTS
Format/Info                              : Digital Theater Systems
Mode                                     : 16
Format settings, Endianness              : Big
Codec ID                                 : A_DTS
Duration                                 : 50mn 49s
Bit rate mode                            : Constant
Bit rate                                 : 1 509 Kbps
Channel(s)                               : 6 channels
Channel positions                        : Front: L C R, Side: L R, LFE
Sampling rate                            : 48.0 KHz
Bit depth                                : 24 bits
Compression mode                         : Lossy
Stream size                              : 549 MiB (11%)
Title                                    : English
Language                                 : English
Default                                  : No
Forced                                   : No



Download:
Share-Online.biz Share-Online.bizShare-Online.bizShare-Online.biz | Rapidgator.net Rapidgator.netRapidgator.netRapidgator.net
 

Kommentare