DNS SERVER AENDERNum der staatlichen Zensur zu umgehen. Sollten wir von eurem Provider geseprrt werden, nutzt den TOR BROWSER oder ändert euren DNS SERVER.

Filmwünsche können bei uns im Forum abgegeben werden

Wir Speichern Nicht




 
 
 
Top Releases
Prison.Break.Ein.letzter.Sch...
Prison.Break.Ein.letzter.Sch...
Die.Verlegerin.2017.MULTI.CO...
Cargo.2017.German.AC3D.DL.10...
The.Secret.Scripture.2016.Ge...
Honig.im.Kopf.2014.German.AC...
The.Ballad.of.Lefty.Brown.20...
Loving.Vincent.2017.MULTi.CO...
The.Secret.Scripture.2016.Ge...
The.Ballad.of.Lefty.Brown.20...

Cinedubs
Deadpool.2.2018.GERMAN.720p....
Das.Zeitraetsel.2018.German....
Das.Zeitraetsel.2018.German....
Death.Wish.German.DL.AC3.Dub...
Death.Wish.German.DL.AC3.Dub...
Death.Wish.German.DL.AC3.Dub...
Death.Wish.German.DL.AC3.Dub...
Der.Buchladen.der.Florence.G...
Der.Buchladen.der.Florence.G...
Pacific.Rim.2.Uprising.Germa...

Neuerscheinungen 2017-18
Tango.One.2018.DUAL.COMPLETE...
Tango.One.2018.German.720p.B...
Tango.One.2018.German.DL.108...
Ibiza.2018.German.Dubbed.DL....
Topkapi.1964.MULTi.COMPLETE....
Der.grosse.Eisenbahnraub.The...
RED.2.Noch.Aelter.Haerter.Be...
RED.2010.MULTi.COMPLETE.UHD....
Massai.Apache.1954.MULTi.COM...
Tad.Jones.und.das.Geheimnis....

XXX
BrazzersExxtra.18.05.14.Char...
ATKGirlfriends.18.05.15.Hime...
BritneyAmber.18.05.18.Hotter...
BadMilfs.18.05.18.Sofie.Mari...
BoundGangBangs.18.05.16.Isab...
BurningAngel.18.05.15.Joanna...
BurningAngel.18.05.18.Joanna...
Blacked.18.05.15.Gia.Paige.X...
BigTitsRoundAsses.18.05.17.J...
BlacksOnBlondes.18.05.15.Man...
BrazzersExxtra.18.05.18.Brit...
CherryPimps.18.05.14.Ella.Hu...
Bang.Confessions.18.05.18.Ro...
Bang.Europe.70.XXX.720p.WEBR...
CastingCouch-X.18.05.18.Mira...
Bang.Glamkore.18.05.17.Saman...
BangBros18.18.05.15.Jane.Wil...
BitchesAbroad.18.05.18.Chloe...
Bang.RealTeens.18.05.14.Jess...
CarneDelMercado.18.05.15.Ane...

3D
Zombies.Ueberlebe.die.Untote...
Norwegen.3D.2013.GERMAN.DL.D...
Norwegen.3D.2013.GERMAN.DOKU...
Jumanji.Willkommen.im.Dschun...
Jumanji.Welcome.To.The.Jungl...
Abraham.Lincoln.Vampire.Hunt...
Norwegen.3D.2013.MULTi.COMPL...
Star.Wars.Episode.VIII.Die.l...
Star.Wars.Episode.VIII.Die.l...
Star.Wars.Episode.VIII.Die.l...
Jumanji.Welcome.To.The.Jungl...
Star.Wars.The.Last.Jedi.2017...
Final.Storm.Der.Untergang.de...
Final.Storm.Der.Untergang.de...
Jumanji.Willkommen.im.Dschun...

Old_Stuff
Tremors.3.Die.neue.Brut.2001...
Die.Indianer.von.Cleveland.2...
Dealt.2017.1080p.AMZN.WEB-DL...
Dealt.2017.720p.AMZN.WEB-DL....
Roter.Staub.aka.The.Brave.On...
Roter.Staub.aka.The.Brave.On...
Magic.in.the.Moonlight.2014....
The.LEGO.Ninjago.Movie.2017....
Zeit.der.Zaertlichkeit.1983....
Zeit.der.Zaertlichkeit.1983....
Regular.Show.S01.1080p.BluRa...
Ostfriesisch.fuer.Anfaenger....
Planet.der.Affen.Prevolution...
Final.Fantasy.VII.Advent.Chi...
City.Slickers.2.1994.German....

Filme
R.E.D.Aelter.haerter.besser....
R.E.D.2.Noch.aelter.Haerter....
Fatso.2008.German.DL.1080p.B...
Bullyparade.Der.Film.2017.Ge...
Ancient.Aliens.-.Unerklaerli...
Ancient.Aliens.-.Unerklaerli...
Korczak.1990.German.1080p.Bl...
Das.Messer.im.Wasser.1962.Ge...
Rebecka.Martinsson.S01D01-2....
Kap.der.Angst.1991.German.DT...
R.E.D.2.Noch.aelter.Haerter....
R.E.D.Aelter.haerter.besser....
Orphan.Das.Waisenkind.2009.G...
The.Sweet.Hereafter.Das.sues...
The.Tree.of.Life.2011.German...
Die.Verlegerin.2017.German.D...
Die.Verlegerin.2017.German.D...
Vielleicht.lieber.morgen.201...
Star.Wars.The.Clone.Wars.200...
Honey.3.German.2016.DTS.1080...
Shes.the.Man.Voll.mein.Typ.2...
Shes.the.Man.Voll.mein.Typ.2...
North.-.Eltern.Nein.Danke.19...
Space.Truckers.1996.1080p.GB...

 
 
The.Handmaids.Tale.S01.COMPLETE.German.DD51.Synced.DL.720p.AmazonHD.x264-TVS​
Jahr: 2017
Genre: Drama | Sci-Fi
Sprache: Deutsch AC3 | Englisch AC3
Laufzeit: 55min je Folge
Bitrate: 5100 Kbps
Format: MKV
Größe: 2,5 GB je Folge
Release:

Beschreibung:

Die Serie „The Handmaid's Tale“ basiert auf einem gleichnamigen Roman der Autorin Margaret Atwood. Die Geschichte spielt in der fiktiven Republik Gilead, einer dystopischen Zukunftsvision für Amerika. Im Mittelpunkt steht eine junge Frau namens Offred (Elisabeth Moss), die aufgrund ihrer seltenen Fähigkeit, Kinder zu gebären, zum Eigentum des Staates deklariert wurde.

Gilead ist geprägt von Umweltkatastrophen, religiösem Radikalismus und einem drastischen Niedergang der Bevölkerungszahl. Die letzten fruchtbaren Frauen, so wie Offred, werden von den regierenden Männern als Sexsklavinnen gehalten. Jedes falsche Wort könnte ihr Leben beenden.

Samira Wiley wird die beste Freundin der von Moss gespielten Figur Offred mimen. Die beiden Charaktere waren zusammen auf dem College und durchlaufen nun gemeinsam die Ausbildung zur Handmaid. Alexis Bledel übernimmt die Rolle der Ofglen, bei der es sich um eine wichtige Gefährtin der Protagonistin Offred handelt.



General
Complete name                            : The.Handmaids.Tale.S01E01.Desfred.German.DD51.Synced.DL.720p.AmazonHD.x264-TVS\tvs-tht-dd51-sed-dl-7p-azhd-x264-101.mkv
Format                                   : Matroska
Format version                           : Version 4 / Version 2
File size                                : 2.51 GiB
Duration                                 : 55mn 0s
Overall bit rate                         : 6 520 Kbps
Encoded date                             : UTC 2018-01-06 18:18:58
Writing application                      : mkvmerge v19.0.0 ('Brave Captain') 64-bit
Writing library                          : libebml v1.3.5 + libmatroska v1.4.8
DURATION                                 : 00:54:48.092000000
NUMBER_OF_FRAMES                         : 726
NUMBER_OF_BYTES                          : 18345
_STATISTICS_WRITING_APP                  : mkvmerge v19.0.0 ('Brave Captain') 64-bit
_STATISTICS_WRITING_DATE_UTC             : 2018-01-06 18:18:58
_STATISTICS_TAGS                         : BPS DURATION NUMBER_OF_FRAMES NUMBER_OF_BYTES

Video
ID                                       : 1
Format                                   : AVC
Format/Info                              : Advanced Video Codec
Format profile                           : High@L4.1
Format settings, CABAC                   : Yes
Format settings, ReFrames                : 9 frames
Codec ID                                 : V_MPEG4/ISO/AVC
Duration                                 : 55mn 1s
Bit rate                                 : 5 110 Kbps
Width                                    : 1 280 pixels
Height                                   : 720 pixels
Display aspect ratio                     : 16:9
Frame rate mode                          : Constant
Frame rate                               : 25.000 fps
Color space                              : YUV
Chroma subsampling                       : 4:2:0
Bit depth                                : 8 bits
Scan type                                : Progressive
Bits/(Pixel*Frame)                       : 0.222
Stream size                              : 1.96 GiB (78%)
Writing library                          : x264 core 152 r2851 ba24899
Encoding settings                        : cabac=1 / ref=9 / deblock=1:-3:-3 / analyse=0x3:0x133 / me=umh / subme=10 / psy=1 / psy_rd=1.05:0.00 / mixed_ref=1 / me_range=24 / chroma_me=1 / trellis=2 / 8x8dct=1 / cqm=0 / deadzone=21,11 / fast_pskip=1 / chroma_qp_offset=-2 / threads=22 / lookahead_threads=3 / sliced_threads=0 / nr=0 / decimate=1 / interlaced=0 / bluray_compat=0 / constrained_intra=0 / bframes=8 / b_pyramid=2 / b_adapt=2 / b_bias=0 / direct=3 / weightb=1 / open_gop=0 / weightp=2 / keyint=250 / keyint_min=23 / scenecut=40 / intra_refresh=0 / rc_lookahead=60 / rc=crf / mbtree=1 / crf=15.5 / qcomp=0.60 / qpmin=0 / qpmax=69 / qpstep=4 / ip_ratio=1.40 / aq=2:0.90
Default                                  : Yes
Forced                                   : No
Color primaries                          : BT.709
Transfer characteristics                 : BT.709
Matrix coefficients                      : BT.709

Audio #1
ID                                       : 2
Format                                   : AC-3
Format/Info                              : Audio Coding 3
Mode extension                           : CM (complete main)
Format settings, Endianness              : Big
Codec ID                                 : A_AC3
Duration                                 : 55mn 0s
Bit rate mode                            : Constant
Bit rate                                 : 640 Kbps
Channel(s)                               : 6 channels
Channel positions                        : Front: L C R, Side: L R, LFE
Sampling rate                            : 48.0 KHz
Bit depth                                : 16 bits
Compression mode                         : Lossy
Stream size                              : 252 MiB (10%)
Language                                 : German
Default                                  : Yes
Forced                                   : No

Audio #2
ID                                       : 3
Format                                   : AC-3
Format/Info                              : Audio Coding 3
Mode extension                           : CM (complete main)
Format settings, Endianness              : Big
Codec ID                                 : A_AC3
Duration                                 : 55mn 0s
Bit rate mode                            : Constant
Bit rate                                 : 640 Kbps
Channel(s)                               : 6 channels
Channel positions                        : Front: L C R, Side: L R, LFE
Sampling rate                            : 48.0 KHz
Bit depth                                : 16 bits
Compression mode                         : Lossy
Stream size                              : 252 MiB (10%)
Language                                 : English
Default                                  : No
Forced                                   : No

Text
ID                                       : 4
Format                                   : UTF-8
Codec ID                                 : S_TEXT/UTF8
Codec ID/Info                            : UTF-8 Plain Text
Language                                 : English
Default                                  : No
Forced                                   : No



Download:
Share-Online.biz Share-Online.bizShare-Online.bizShare-Online.biz | Rapidgator.net Rapidgator.netRapidgator.netRapidgator.net
 

Kommentare