Filmwünsche können bei uns im Forum abgegeben werden

Wir Speichern Nicht




 
 
 
Top Releases
Zwischen.zwei.Leben.The.Moun...
Koerper.und.Seele.2017.Germa...
Koerper.und.Seele.2017.Germa...
Sing.2016.German.DL.2160p.UH...
Der.grosse.Gatsby.The.Great....
Pacific.Rim.2013.COMPLETE.UH...
The.Girl.on.the.Train.2016.D...
Sweet.Virginia.2017.MULTI.CO...
Sweet.Virginia.2017.German.D...
American.Made.2017.MULTi.COM...

Cinedubs
Blade.Runner.2049.3D.HSBS.Ge...
Blade.Runner.2049.GERMAN.DL....
Blade.Runner.2049.3D.HOU.Ger...
Thor.Tag.der.Entscheidung.20...
Thor.Tag.der.Entscheidung.20...
Blade.Runner.2049.2017.Germa...
Jigsaw.2017.German.AC3D.DL.7...
Jigsaw.2017.German.AC3D.DL.1...
The.LEGO.Ninjago.Movie.Germa...
The.LEGO.Ninjago.Movie.Germa...

Neuerscheinungen 2017-18
Hereinspaziert.2017.DUAL.COM...
Hampstead.Park.Aussicht.auf....
Hampstead.Park.Aussicht.auf....
Hereinspaziert.2017.German.7...
Amnesiac.2015.German.720p.Bl...
Blade.Runner.2049.German.DL....
Blade.Runner.2049.GERMAN.DL....
Blade.Runner.2049.GERMAN.DL....
Amnesiac.2015.German.DL.1080...
Pfad.der.Rache.2017.German.D...

XXX
MommysGirl.18.01.16.Bridgett...
Lesbea.18.01.14.Anie.Darling...
LukeHardyXXX.17.12.27.Stella...
JapanHDV.18.01.13.Noriko.Aot...
MySistersHotFriend.18.01.16....
LoveHerFeet.17.10.06.Alexis....
LethalHardcore.My.Stepsister...
MariskaX.18.01.14.Angelique....
LoveHerFeet.17.12.22.Brenna....
LoveHerFeet.17.09.29.Nina.No...
KinkyFamily.18.01.13.Kenzie....
LoveHerFeet.17.09.08.Sidney....
LetsTryAnal.18.01.15.Evelin....
MyFriendsHotGirl.18.01.13.Kl...
LoveHerFeet.17.09.22.Chloe.S...
Joymii.18.01.13.Tina.Kay.Fir...
MariskaX.18.01.15.Alessa.Sav...
MonsterCurves.18.01.16.Aniss...
Lustery.E85.Mary.And.Ann.Lat...
JeshByJesh.18.01.13.Victoria...

3D
Geostorm.3D.2017.HSBS.German...
Geostorm.3D.2017.HOU.German....
Geostorm.3D.2017.multi.compl...
Cars.3.3D.2017.multi.complet...
Cars.3.Evolution.3D.HSBS.201...
Cars.3.Evolution.3D.HOU.2017...
Ares.2016.3D.HOU.German.1080...
Guardians.Of.The.Galaxy.Vol....
Ares.3D.2016.German.720p.Blu...
Ares.3D.2016.German.1080p.Bl...
El.Americano.Kleiner.Superhe...
Best.of.3D.vol.01.-.03.GERMA...
Pete.Smalls.is.Dead.3D.2010....
Baymax.Riesiges.Robowabohu.2...
Bigfoot.Junior.3D.2017.GERMA...

Old_Stuff
American.Sniper.2014.MULTi.C...
Hana-bi.Feuerblume.1997.Germ...
Memphis.Belle.1990.German.DL...
Im.Schatten.des.Mondes.Germa...
Tomb.Raider.2001.DUAL.COMPLE...
Tomb.Raider.Die.Wiege.des.Le...
Party.Animals.3.German.AC3.7...
The.Rocky.Horror.Picture.Sho...
Die.Fliege.1986.German.DTS.1...
Mimic.2.2001.German.DD5.1D.D...
The.Tournament.UNCUT.2009.Ge...
Dr.House.S08.German.720p.Blu...
Dr.House.S07.German.720p.Blu...
Dr.House.S06.German.720p.Blu...
Dr.House.S05.German.720p.Blu...

Filme
Phantasm.IV.GERMAN.1998.DL.1...
Phantasm.IV.GERMAN.1998.DL.7...
Lebanon.Toedliche.Mission.20...
Spawn.1997.German.DL.1080p.B...
Die.Kammer.-.The.Chamber.199...
I.Am.David.2003.German.AC3D....
Grifters.1990.German.DL.AC3D...
Daenische.Delikatessen.2003....
Jakob.der.Luegner.aka.Jakob....
Perfect.Blue.1997.German.AC3...
Verfluchtes.Amsterdam.Uncut....
Verfluchtes.Amsterdam.Uncut....
Verfluchtes.Amsterdam.Uncut....
Der.versteinerte.Wald.-.The....
The.Astronauts.Wife.1999.Ger...
The.Big.Bang.Theory.S11.Germ...
The.Big.Bang.Theory.S11.Germ...
Star.Trek.Discovery.S01.Germ...
Supernatural.S12.GERMAN.DUBB...
Supernatural.S12.GERMAN.DUBB...
The.Expendables.THEATRICAL.2...
The.Expendables.DC.2010.Germ...
Born.to.Be.Wild.1995.German....
Shriek.Schrei.wenn.du.weisst...

 
 
Blade.Runner.2049.2017.3D.HOU.German.AC3D.5.1.DL.1080p.BluRay.x264-LameHD
Jahr: 2017
Genre: Sci-Fi, Thriller
Sprache: Deutsch AC3 | Englisch AC3
Laufzeit: 2h 43mn
Bitrate: 4 009 Kbps
Format: MKV
Größe: 4.58 GiB
Release:

Beschreibung:
Im Jahr 2023 wird die Herstellung von Replikanten – künstlichen Menschen, die zum Einsatz in den Weltall-Kolonien gezüchtet werden – nach mehreren schwerwiegenden Vorfällen verboten. Als der brillante Industrielle Niander Wallace (Jared Leto) ein neues, verbessertes Modell, den „Nexus 9“, vorstellt, wird die Produktion 2036 jedoch wieder erlaubt. Um ältere und somit nicht zugelassene Replikanten-Modelle, die sich auf der Erde verstecken, aufzuspüren und zu eliminieren, ist weiterhin die sogenannte „Blade Runner“-Einheit des LAPD im Einsatz, zu der auch K (Ryan Gosling) gehört. Bei seiner Arbeit stößt K auf ein düsteres, gut gehütetes Geheimnis von enormer Sprengkraft, das ihn auf die Spur eines ehemaligen Blade Runners bringt: Rick Deckard (Harrison Ford), der vor 30 Jahren aus Los Angeles verschwand…


Complete name                            : lame-br2049.hou-1080p.mkv
Format                                   : Matroska
Format version                           : Version 4 / Version 2
File size                                : 4.58 GiB
Duration                                 : 2h 43mn
Overall bit rate                         : 4 009 Kbps
Movie name                               : Blade Runner 2049 HOU
Encoded date                             : UTC 2018-01-06 22:53:12
Writing application                      : mkvmerge v9.7.1 ('Pandemonium') 64bit
Writing library                          : x264 0.152.2851 ba24899 / (libswscale 4.7.101) / (libavformat 57.75.100) / (ffmpegsource 2.23.0.0) / built by Komisar on Jul  2 2017, gcc: 4.8.4 (multilib.generic.Komisar) / x264 configuration: --bit-depth=8 --chroma-format=all / libx264 configuration: --bit-depth=8 --chroma-format=all / x264 license: GPL version 2 or later / libswscale/libavformat/ffmpegsource license: GPL version 2 or later
Original source form                     : Blu-ray 3D
TITLE                                    : Blade Runner 2049 HOU
AUTHOR                                   : BD3D2MK3D 1.2
ENCODER_SETTINGS                         : --crf 18 --preset fast --level 4.1 --vbv-bufsize 78125 --vbv-maxrate 62500 --sar 1:1 --range tv --colormatrix bt709 --frame-packing 4
DATE_ENCODED                             : 2018-01-06
DURATION                                 : 00:51:11.433000000
NUMBER_OF_FRAMES                         : 19
NUMBER_OF_BYTES                          : 116123
_STATISTICS_WRITING_APP                  : mkvmerge v9.7.1 ('Pandemonium') 64bit
_STATISTICS_WRITING_DATE_UTC             : 2018-01-06 22:53:12
_STATISTICS_TAGS                         : BPS DURATION NUMBER_OF_FRAMES NUMBER_OF_BYTES

Video
ID                                       : 1
Format                                   : AVC
Format/Info                              : Advanced Video Codec
Format profile                           : High@L4.1
MultiView_Count                          : 2
MultiView_Layout                         : Top-Bottom (left eye first)
Format settings, CABAC                   : Yes
Format settings, ReFrames                : 4 frames
Codec ID                                 : V_MPEG4/ISO/AVC
Duration                                 : 2h 43mn
Bit rate                                 : 2 842 Kbps
Width                                    : 1 920 pixels
Height                                   : 1 080 pixels
Display aspect ratio                     : 16:9
Frame rate mode                          : Constant
Frame rate                               : 23.976 fps
Color space                              : YUV
Chroma subsampling                       : 4:2:0
Bit depth                                : 8 bits
Scan type                                : Progressive
Bits/(Pixel*Frame)                       : 0.057
Stream size                              : 3.24 GiB (71%)
Writing library                          : x264 core 152 r2851 ba24899
Encoding settings                        : cabac=1 / ref=2 / deblock=1:0:0 / analyse=0x3:0x113 / me=hex / subme=6 / psy=1 / psy_rd=1.00:0.00 / mixed_ref=1 / me_range=16 / chroma_me=1 / trellis=1 / 8x8dct=1 / cqm=0 / deadzone=21,11 / fast_pskip=1 / chroma_qp_offset=-2 / threads=12 / lookahead_threads=2 / sliced_threads=0 / nr=0 / decimate=1 / interlaced=0 / bluray_compat=0 / constrained_intra=0 / bframes=3 / b_pyramid=2 / b_adapt=1 / b_bias=0 / direct=1 / weightb=1 / open_gop=0 / weightp=1 / keyint=250 / keyint_min=23 / scenecut=40 / intra_refresh=0 / rc_lookahead=30 / rc=crf / mbtree=1 / crf=18.0 / qcomp=0.60 / qpmin=0 / qpmax=69 / qpstep=4 / vbv_maxrate=62500 / vbv_bufsize=78125 / crf_max=0.0 / nal_hrd=none / filler=0 / frame-packing=4 / ip_ratio=1.40 / aq=1:1.00
Default                                  : Yes
Forced                                   : No
Matrix coefficients                      : BT.709

Audio #1
ID                                       : 2
Format                                   : AC-3
Format/Info                              : Audio Coding 3
Mode extension                           : CM (complete main)
Format settings, Endianness              : Big
Codec ID                                 : A_AC3
Duration                                 : 2h 43mn
Bit rate mode                            : Constant
Bit rate                                 : 448 Kbps
Channel(s)                               : 6 channels
Channel positions                        : Front: L C R, Side: L R, LFE
Sampling rate                            : 48.0 KHz
Bit depth                                : 16 bits
Compression mode                         : Lossy
Stream size                              : 524 MiB (11%)
Language                                 : German
Default                                  : Yes
Forced                                   : No

Audio #2
ID                                       : 3
Format                                   : AC-3
Format/Info                              : Audio Coding 3
Mode extension                           : CM (complete main)
Format settings, Endianness              : Big
Codec ID                                 : A_AC3
Duration                                 : 2h 43mn
Bit rate mode                            : Constant
Bit rate                                 : 640 Kbps
Channel(s)                               : 6 channels
Channel positions                        : Front: L C R, Side: L R, LFE
Sampling rate                            : 48.0 KHz
Bit depth                                : 16 bits
Compression mode                         : Lossy
Delay relative to video                  : 5ms
Stream size                              : 748 MiB (16%)
Language                                 : English
Default                                  : No
Forced                                   : No

Text
ID                                       : 4
Format                                   : VobSub
Muxing mode                              : zlib
Codec ID                                 : S_VOBSUB
Codec ID/Info                            : The same subtitle format used on DVDs
Title                                    : forced
Language                                 : German
Default                                  : Yes
Forced                                   : Yes


Download:
Share Online Share OnlineShare OnlineShare Online
 

Kommentare

  1. Geschrieben am 7. January 2018, 17:19 Uhr von Hans Becker · #

    Ton ist Mic

  2. Geschrieben am 8. January 2018, 23:17 Uhr von willy boyyy · #

    danke, angeblich sollte es line sein aber ist fake