DNS SERVER AENDERNum der staatlichen Zensur zu umgehen. Sollten wir von eurem Provider geseprrt werden, nutzt den TOR BROWSER oder ändert euren DNS SERVER.

Filmwünsche können bei uns im Forum abgegeben werden

Wir Speichern Nicht




 
 
 
Top Releases
Hagazussa.Der.Hexenfluch.201...
Ready.Player.One.2018.MULTi....
Moonwalkers.2015.German.AC3....
I.Tonya.2017.DUAL.COMPLETE.B...
Peter.Hase.Peter.Rabbit.2018...
Last.Resistance.Im.russische...
Vor.uns.das.Meer.2018.German...
Death.Wish.2018.MULTI.COMPLE...
I.Tonya.2017.German.720p.Blu...
I.Tonya.2017.German.DL.1080p...

Cinedubs
Deadpool.2.2018.Super.Duper....
Deadpool.2.2018.Super.Duper....
Die.Farbe.des.Horizonts.2018...
Die.Farbe.des.Horizonts.2018...
Catch.Me.2018.GERMAN.DL.AC3....
Catch.Me.2018.GERMAN.DL.AC3....
Deadpool.2.Super.Duper.Cut.2...
Deadpool.2.2018.German.AC3D....
Skyscraper.2018.German.AC3LD...
Skyscraper.2018.GERMAN.DL.AC...

Neuerscheinungen 2017-18
The.Package.2018.GERMAN.720p...
Norma.Rae.1979.MULTi.COMPLET...
Hagazussa.Der.Hexenfluch.201...
Action.Point.2018.German.AC3...
Action.Point.2018.German.AC3...
Action.Point.2018.German.108...
Action.Point.2018.COMPLETE.B...
Death.Wish.3.1985.MULTi.COMP...
Hagazussa.Der.Hexenfluch.201...
Das.unsichtbare.Netz.Night.P...

XXX
JulesJordan.18.08.11.Zoe.Blo...
ClubSeventeen.18.08.11.Angel...
ImmoralLive.18.08.11.Cherry....
AuntJudys.18.08.10.Grace.Mas...
Lesbea.18.08.11.Luna.Corazon...
FreakMobMedia.18.03.08.Adree...
DigitalPlayground.18.08.11.E...
HeavyOnHotties.18.08.10.Kand...
AlettaOceanLive.18.08.10.The...
FreakMobMedia.18.03.16.Macan...
CumEatingCuckOlds.18.07.31.L...
HandsOnHardcore.18.08.11.Can...
CumEatingCuckOlds.18.07.29.M...
DevilsFilm.18.08.11.Alana.Cr...
Throated.18.08.10.Mona.Wales...
SelfieSuck.18.07.11.Skylar.X...
TheFuckingRoom.18.08.10.Lara...
WankItNow.17.09.01.Britney.N...
UpHerAsshole.18.08.09.Kyra.R...
WakeUpNFuck.E255.Anya.Krey.X...

3D
Tomb.Raider.3D.2018.German.7...
Rampage.Big.Meets.Bigger.3D....
Rampage.Big.Meets.Bigger.3D....
Tomb.Raider.3D.2018.MULTi.CO...
Pacific.Rim.Uprising.3D.2018...
Ready.Player.One.3D.2018.Ger...
Rampage.-.Big.Meets.Bigger.2...
Ready.Player.One.2018.3D.HOU...
Ready.Player.One.2018.3D.HSB...
Ready.Player.One.3D.2018.MUL...
Black.Panther.3D.2018.MULTI....
Black.Panther.3D.HOU.2018.Ge...
Black.Panther.3D.HSBS.2018.G...
Best.of.3D.vol.04.-.06.GERMA...
Tomb.Raider.2018.3D.HOU.Germ...

Old_Stuff
Meine.liebe.Rabenmutter.germ...
Da.Vincis.Demons.S01.Complet...
Eragon.Das.Vermaechtnis.der....
Adele.und.das.Geheimnis.des....
Die.fabelhafte.Welt.der.Amel...
Haus.des.Geldes.S01.German.M...
How.I.Met.Your.Mother.S01.Ge...
The.Dark.Knight.Rises.2012.M...
Weissensee.S03.2015.GERMAN.C...
Weissensee.S01+S02.2010.GERM...
Die.Unglaublichen.-.The.Incr...
Der.grosse.Trick.1978.German...
Sully.2016.MULTi.COMPLETE.BL...
Tremors.3.Die.neue.Brut.2001...
Die.Indianer.von.Cleveland.2...

Filme
Shooter.S03.GERMAN.DUBBED.DL...
Shooter.S03.GERMAN.DUBBED.DL...
Die.Simpsons.S29.GERMAN.DUBB...
Die.Simpsons.S29.GERMAN.DUBB...
MacGyver.S02.German.HDTV.108...
DCs.Legends.of.Tomorrow.S03....
Better.Call.Saul.S04.German....
Predator.1987.German.DL.2160...
Norma.Rae.1979.GERMAN.DL.DTS...
Norma.Rae.-.Eine.Frau.steht....
Wenn.Louis.eine.Reise.tut.19...
Balduin.der.Geldschrankknack...
Die.Bande.des.Schreckens.196...
American.Psycho.2000.German....
The.Go.Between.Der.Mittler.1...
Better.Call.Saul.S04.German....
The.Bang.Bang.Club.German.DL...
The.Foreigner.2017.German.DT...
Die.Welt.der.Wunderlichs.201...
Liebe.und.Eis.1992.German.72...
Liebe.und.Eis.1992.German.DL...
Die.Geschichte.der.O.1975.Ge...
Die.Geschichte.der.O.1975.Ge...
Action.Point.German.DL.720p....

 
 
Frequency.S01.COMPLETE.German.Dubbed.DL.720p.AmazonHD.x264-GDR
Jahr: 2016
Genre: Drama | Fantasy | Mystery
Sprache: Deutsch AC3 | Englisch AC3
Laufzeit: 40min je Folge
Bitrate: 4100 Kbps
Format: MKV
Größe: 1,5 GB je Folge
Release:

Beschreibung:

Der Polizistin Raimy Sullivan gelingt es, mit ihrem bereits im Jahr 1996 verstorbenen Vater Frank über ein Amateurfunkgerät Kontakt aufzunehmen. Der war zu jener Zeit ebenfalls Polizist. Gemeinsam lösen sie über die Zeitgrenze hinweg Mordfälle und lernen einander kennen. Allerdings haben die kleinen Eingriffe in die Zeit nach und nach immer stärkere Auswirkungen auf Raimys Gegenwart.

 

enthaltene Folgen (Staffel komplett):

Frequency.S01E01.Suche.Funkkontakt.German.Dubbed.DL.720p.AmazonHD.x264-GDR

Frequency.S01E02.Veraenderungen.haben.Konsequenzen.German.Dubbed.DL.720p.AmazonHD.x264-GDR

Frequency.S01E03.Der.Nah.Fern.Effekt.German.Dubbed.DL.720p.AmazonHD.x264-GDR

Frequency.S01E04.Langes.Schweigen.German.Dubbed.DL.720p.AmazonHD.x264-GDR

Frequency.S01E05.Doppelter.Einsatz.German.Dubbed.DL.720p.AmazonHD.x264-GDR

Frequency.S01E06.Stoerfrequenz.German.Dubbed.DL.720p.AmazonHD.x264-GDR

Frequency.S01E07.Miracella.German.Dubbed.DL.720p.AmazonHD.x264-GDR

Frequency.S01E08.Interferenz.German.Dubbed.DL.720p.AmazonHD.x264-GDR

Frequency.S01E09.Das.Wandverlies.German.Dubbed.DL.720p.AmazonHD.x264-GDR

Frequency.S01E10.Der.Edison.Effekt.German.Dubbed.DL.720p.AmazonHD.x264-GDR

Frequency.S01E11.Eine.Tat.loescht.die.andere.German.Dubbed.DL.720p.AmazonHD.x264-GDR

Frequency.S01E12.Harmonische.Schwingung.German.Dubbed.DL.720p.AmazonHD.x264-GDR

Frequency.S01E13.Signalverlust.German.Dubbed.DL.720p.AmazonHD.x264-GDR NEU



General
Complete name                            : Frequency.S01E01.Suche.Funkkontakt.German.Dubbed.DL.720p.AmazonHD.x264-GDR.mkv
Format                                   : Matroska
Format version                           : Version 4 / Version 2
File size                                : 1.51 GiB
Duration                                 : 40mn 41s
Overall bit rate mode                    : Variable
Overall bit rate                         : 5 296 Kbps
Encoded date                             : UTC 2018-01-06 19:22:40
Writing application                      : mkvmerge v8.2.0 ('World of Adventure') 32bit
Writing library                          : libebml v1.3.1 + libmatroska v1.4.2
DURATION                                 : 00:40:41.856000000
NUMBER_OF_FRAMES                         : 76308
NUMBER_OF_BYTES                          : 117209088
_STATISTICS_WRITING_APP                  : mkvmerge v8.2.0 ('World of Adventure') 32bit
_STATISTICS_WRITING_DATE_UTC             : 2018-01-06 19:22:40
_STATISTICS_TAGS                         : BPS DURATION NUMBER_OF_FRAMES NUMBER_OF_BYTES

Video
ID                                       : 1
Format                                   : AVC
Format/Info                              : Advanced Video Codec
Format profile                           : High@L4.1
Format settings, CABAC                   : Yes
Format settings, ReFrames                : 3 frames
Codec ID                                 : V_MPEG4/ISO/AVC
Duration                                 : 40mn 41s
Bit rate mode                            : Variable
Bit rate                                 : 4 614 Kbps
Maximum bit rate                         : 40.0 Mbps
Width                                    : 1 280 pixels
Height                                   : 720 pixels
Display aspect ratio                     : 16:9
Frame rate mode                          : Constant
Frame rate                               : 25.000 fps
Color space                              : YUV
Chroma subsampling                       : 4:2:0
Bit depth                                : 8 bits
Scan type                                : Progressive
Bits/(Pixel*Frame)                       : 0.200
Stream size                              : 1.31 GiB (87%)
Writing library                          : x264 core 148 r2705 3f5ed56
Encoding settings                        : cabac=1 / ref=3 / deblock=1:-1:-1 / analyse=0x3:0x113 / me=hex / subme=7 / psy=1 / psy_rd=1.00:0.15 / mixed_ref=1 / me_range=16 / chroma_me=1 / trellis=1 / 8x8dct=1 / cqm=0 / deadzone=21,11 / fast_pskip=1 / chroma_qp_offset=-3 / threads=6 / lookahead_threads=1 / sliced_threads=0 / slices=4 / nr=0 / decimate=1 / interlaced=0 / bluray_compat=0 / constrained_intra=0 / bframes=3 / b_pyramid=1 / b_adapt=1 / b_bias=0 / direct=1 / weightb=1 / open_gop=0 / weightp=2 / keyint=48 / keyint_min=4 / scenecut=40 / intra_refresh=0 / rc_lookahead=40 / rc=crf / mbtree=1 / crf=18.0 / qcomp=0.60 / qpmin=0 / qpmax=69 / qpstep=4 / vbv_maxrate=40000 / vbv_bufsize=30000 / crf_max=0.0 / nal_hrd=vbr / filler=0 / ip_ratio=1.40 / aq=1:1.00
Language                                 : German
Default                                  : Yes
Forced                                   : No

Audio #1
ID                                       : 2
Format                                   : AC-3
Format/Info                              : Audio Coding 3
Mode extension                           : CM (complete main)
Format settings, Endianness              : Big
Codec ID                                 : A_AC3
Duration                                 : 40mn 41s
Bit rate mode                            : Constant
Bit rate                                 : 192 Kbps
Channel(s)                               : 2 channels
Channel positions                        : Front: L R
Sampling rate                            : 48.0 KHz
Bit depth                                : 16 bits
Compression mode                         : Lossy
Stream size                              : 55.9 MiB (4%)
Language                                 : German
Default                                  : Yes
Forced                                   : No

Audio #2
ID                                       : 3
Format                                   : AC-3
Format/Info                              : Audio Coding 3
Mode extension                           : CM (complete main)
Format settings, Endianness              : Big
Codec ID                                 : A_AC3
Duration                                 : 40mn 41s
Bit rate mode                            : Constant
Bit rate                                 : 384 Kbps
Channel(s)                               : 6 channels
Channel positions                        : Front: L C R, Side: L R, LFE
Sampling rate                            : 48.0 KHz
Bit depth                                : 16 bits
Compression mode                         : Lossy
Stream size                              : 112 MiB (7%)
Language                                 : English
Default                                  : No
Forced                                   : No



Download:
Share-Online.biz Share-Online.bizShare-Online.bizShare-Online.biz | Rapidgator.net Rapidgator.netRapidgator.netRapidgator.net
 

Kommentare

  1. Geschrieben am 8. February 2018, 09:26 Uhr von Hoschi · #

    Bei mir funktioniert Click’n‘Load nicht. Ist nur vereinzelt bei manchen Serien. Diese gehört dazu. Danke. Gruß

    / der DLC Container funktioniert. Aber frage mal bei filecrypt nach, warum es klemmt. Abhilfe wäre erstmal, den Link in JD mit Steuerung-V einzufügen. Dann geht es. Filecrypt hat da wohl was kaputt gemacht. Deshalb wende Dich an sie. Ist derzeit wohl bei allen Serien ein Problem.
  2. Geschrieben am 9. February 2018, 08:53 Uhr von Hoschi · #

    Danke für die schnelle Antwort. DLC funktioniert und filecrypt arbeitet “angeblich” an dem Problem.