DNS SERVER AENDERNum der staatlichen Zensur zu umgehen. Sollten wir von eurem Provider geseprrt werden, nutzt den TOR BROWSER oder ändert euren DNS SERVER.

Filmwünsche können bei uns im Forum abgegeben werden

Wir Speichern Nicht




 
 
 
Top Releases
Die.letzten.Krieger.2017.MUL...
Maudie.2016.MULTi.COMPLETE.B...
London.to.Brighton.2006.Germ...
London.to.Brighton.2006.Germ...
Kleine.schmutzige.Tricks.200...
Kleine.schmutzige.Tricks.200...
Daddys.Home.2.Mehr.Vaeter.me...
Daddys.Home.2.Mehr.Vaeter.me...
Es.2017.German.DL.2160p.UHD....
Daddys.Home.2.Mehr.Vaeter.me...

Cinedubs
The.Disaster.Artist.2017.Ger...
The.Disaster.Artist.2017.Ger...
Thor.Tag.der.Entscheidung.20...
Thor.Tag.der.Entscheidung.20...
Golden.Exits.2018.German.AC3...
Golden.Exits.2018.German.AC3...
Pitch.Perfect.3.German.DL.AC...
Pitch.Perfect.3.German.DL.AC...
Three.Billboards.Outside.Ebb...
Three.Billboards.Outside.Ebb...

Neuerscheinungen 2017-18
The.Dead.Zone.1983.DUAL.COMP...
Mohawk.2017.MULTi.COMPLETE.B...
Killer.Klowns.-.From.outer.S...
Wiedersehen.in.Howards.End.1...
Avanti.Avanti.1972.DUAL.COMP...
Finding.Normal.2013.German.D...
Finding.Normal.2013.German.D...
Mohawk.2017.German.720p.BluR...
Lady.Bloodfight.2016.MULTi.C...
Thor.Tag.der.Entscheidung.20...

XXX
Nubiles.18.01.30.Lucette.Nic...
NeighborAffair.18.02.07.Aidr...
NubileFilms.18.02.07.Nancy.A...
POVBitch.18.02.07.Foxy.Sanie...
NyxonsBondageFiles.Bitch.Get...
PlayboyPlus.18.02.08.Chucha....
MyFriendsHotGirl.18.02.06.Qu...
Nubiles.18.02.06.Emily.Crush...
Old-n-Young.18.02.08.Eveline...
NyxonsBondageFiles.But.I.Fir...
OnlyBlowJob.18.02.08.Jade.Pr...
Passion-HD.18.02.07.Rebel.Ly...
NewSensations.18.02.07.Elena...
PennyPaxLive.18.02.02.Penny....
MyFriendsHotMom.18.02.08.Ver...
Pantyhosed4U.18.02.07.Sophia...
MomsTeachSex.18.02.08.Dani.J...
OnlyTeenBlowJobs.18.02.08.Be...
NyxonsBondageFiles.Bound.Bal...
Nubiles.18.01.31.Emily.Crush...

3D
Piranha.2.3D.2012.DUAL.COMPL...
The.Ark.3D.2013.DUAL.COMPLET...
Blade.Runner.2049.3D.2017.MU...
Blade.Runner.2049.3D.2017.Ge...
The.Crucifixion.3D.2017.Germ...
The.Crucifixion.3D.2017.MULT...
The.Lego.Ninjago.Movie.2017....
The.Lego.Ninjago.Movie.2017....
Spacewalker.2017.3D.HSBS.Ger...
Spacewalker.2017.3D.HOU.Germ...
Blade.Runner.2049.2017.3D.MU...
Geostorm.3D.2017.German.DL.1...
Geostorm.3D.2017.HSBS.German...
Geostorm.3D.2017.HOU.German....
Blade.Runner.2049.3D.HSBS.Ge...

Old_Stuff
Kevin.-.Allein.zu.Haus.4K.Re...
American.Sniper.2014.MULTi.C...
Hana-bi.Feuerblume.1997.Germ...
Memphis.Belle.1990.German.DL...
Im.Schatten.des.Mondes.Germa...
Tomb.Raider.2001.DUAL.COMPLE...
Tomb.Raider.Die.Wiege.des.Le...
Party.Animals.3.German.AC3.7...
The.Rocky.Horror.Picture.Sho...
Die.Fliege.1986.German.DTS.1...
Mimic.2.2001.German.DD5.1D.D...
The.Tournament.UNCUT.2009.Ge...
Dr.House.S08.German.720p.Blu...
Dr.House.S07.German.720p.Blu...
Dr.House.S06.German.720p.Blu...

Filme
Ripper.Street.S05D01+2.DUAL....
Bright.2017.German.DL.2160p....
Jigsaw.2017.German.Dubbed.DT...
Shorebreak.The.Clark.Little....
Apollo.13.1995.German.DL.216...
Gods.of.Egypt.2016.GERMAN.DL...
The.LEGO.Batman.Movie.2017.G...
Daddys.Home.Ein.Vater.zu.vie...
Daddys.Home.Ein.Vater.zu.vie...
Navy.CIS.New.Orleans.S03.Ger...
Navy.CIS.New.Orleans.S03.Ger...
Emerald.City.2017.S01.German...
Emerald.City.2017.S01.German...
Scorpion.S04.GERMAN.DUBBED.D...
Scorpion.S04.GERMAN.DUBBED.D...
X-Men.Erste.Entscheidung.201...
Jupiter.Ascending.2015.Germa...
Get.Shorty.S01.German.DD51.S...
Get.Shorty.S01.German.DD51.S...
Babylon.Berlin.S02.COMPLETE....
Babylon.Berlin.S02.COMPLETE....
Babylon.Berlin.S01.COMPLETE....
Babylon.Berlin.S01.COMPLETE....
California.Highway.1978.Germ...

 
 
Frequency.S01.German.Dubbed.DL.1080p.AmazonHD.x264-GDR
Jahr: 2016
Genre: Drama | Fantasy | Mystery
Sprache: Deutsch AC3 | Englisch AC3
Laufzeit: 40min je Folge
Bitrate: 16 Mbps
Format: MKV
Größe: 4,5 GB je Folge
Release:

Beschreibung:

Der Polizistin Raimy Sullivan gelingt es, mit ihrem bereits im Jahr 1996 verstorbenen Vater Frank über ein Amateurfunkgerät Kontakt aufzunehmen. Der war zu jener Zeit ebenfalls Polizist. Gemeinsam lösen sie über die Zeitgrenze hinweg Mordfälle und lernen einander kennen. Allerdings haben die kleinen Eingriffe in die Zeit nach und nach immer stärkere Auswirkungen auf Raimys Gegenwart.

 

enthaltene Folgen:

Frequency.S01E01.Suche.Funkkontakt.German.Dubbed.DL.1080p.AmazonHD.x264-GDR

Frequency.S01E02.Veraenderungen.haben.Konsequenzen.German.Dubbed.DL.1080p.AmazonHD.x264-GDR

Frequency.S01E03.Der.Nah.Fern.Effekt.German.Dubbed.DL.1080p.AmazonHD.x264-GDR

Frequency.S01E04.Langes.Schweigen.German.Dubbed.DL.1080p.AmazonHD.x264-GDR

Frequency.S01E05.Doppelter.Einsatz.German.Dubbed.DL.1080p.AmazonHD.x264-GDR

Frequency.S01E06.Stoerfrequenz.German.Dubbed.DL.1080p.AmazonHD.x264-GDR

Frequency.S01E07.Miracella.German.Dubbed.DL.1080p.AmazonHD.x264-GDR

Frequency.S01E08.Interferenz.German.Dubbed.DL.1080p.AmazonHD.x264-GDR

Frequency.S01E09.Das.Wandverlies.German.Dubbed.DL.1080p.AmazonHD.x264-GDR NEU



General
Complete name                            : Frequency.S01E01.Suche.Funkkontakt.German.Dubbed.DL.1080p.AmazonHD.x264-GDR.mkv
Format                                   : Matroska
Format version                           : Version 4 / Version 2
File size                                : 4.82 GiB
Duration                                 : 40mn 41s
Overall bit rate                         : 16.9 Mbps
Encoded date                             : UTC 2018-01-06 19:24:13
Writing application                      : mkvmerge v8.2.0 ('World of Adventure') 32bit
Writing library                          : libebml v1.3.1 + libmatroska v1.4.2

Video
ID                                       : 1
Format                                   : AVC
Format/Info                              : Advanced Video Codec
Format profile                           : High@L4.1
Format settings, CABAC                   : Yes
Format settings, ReFrames                : 4 frames
Codec ID                                 : V_MPEG4/ISO/AVC
Duration                                 : 40mn 41s
Bit rate                                 : 16.0 Mbps
Width                                    : 1 920 pixels
Height                                   : 1 080 pixels
Display aspect ratio                     : 16:9
Frame rate mode                          : Constant
Frame rate                               : 25.000 fps
Original frame rate                      : 23.976 fps
Color space                              : YUV
Chroma subsampling                       : 4:2:0
Bit depth                                : 8 bits
Scan type                                : Progressive
Bits/(Pixel*Frame)                       : 0.309
Stream size                              : 4.56 GiB (95%)
Writing library                          : x264 core 148 r2638 7599210
Encoding settings                        : cabac=1 / ref=4 / deblock=1:-3:-3 / analyse=0x3:0x133 / me=umh / subme=10 / psy=1 / psy_rd=1.00:0.00 / mixed_ref=1 / me_range=48 / chroma_me=1 / trellis=2 / 8x8dct=1 / cqm=0 / deadzone=21,11 / fast_pskip=0 / chroma_qp_offset=-2 / threads=12 / lookahead_threads=2 / sliced_threads=0 / nr=0 / decimate=0 / interlaced=0 / bluray_compat=0 / constrained_intra=0 / bframes=8 / b_pyramid=2 / b_adapt=2 / b_bias=0 / direct=3 / weightb=1 / open_gop=0 / weightp=2 / keyint=250 / keyint_min=23 / scenecut=40 / intra_refresh=0 / rc_lookahead=60 / rc=crf / mbtree=0 / crf=17.0 / qcomp=0.60 / qpmin=0 / qpmax=69 / qpstep=4 / vbv_maxrate=62500 / vbv_bufsize=78125 / crf_max=0.0 / nal_hrd=none / filler=0 / ip_ratio=1.30 / pb_ratio=1.20 / aq=3:0.80
Language                                 : German
Default                                  : Yes
Forced                                   : No

Audio #1
ID                                       : 2
Format                                   : AC-3
Format/Info                              : Audio Coding 3
Mode extension                           : CM (complete main)
Format settings, Endianness              : Big
Codec ID                                 : A_AC3
Duration                                 : 40mn 41s
Bit rate mode                            : Constant
Bit rate                                 : 192 Kbps
Channel(s)                               : 2 channels
Channel positions                        : Front: L R
Sampling rate                            : 48.0 KHz
Bit depth                                : 16 bits
Compression mode                         : Lossy
Stream size                              : 55.9 MiB (1%)
Language                                 : German
Default                                  : Yes
Forced                                   : No

Audio #2
ID                                       : 3
Format                                   : AC-3
Format/Info                              : Audio Coding 3
Mode extension                           : CM (complete main)
Format settings, Endianness              : Big
Codec ID                                 : A_AC3
Duration                                 : 40mn 41s
Bit rate mode                            : Constant
Bit rate                                 : 384 Kbps
Channel(s)                               : 6 channels
Channel positions                        : Front: L C R, Side: L R, LFE
Sampling rate                            : 48.0 KHz
Bit depth                                : 16 bits
Compression mode                         : Lossy
Stream size                              : 112 MiB (2%)
Language                                 : English
Default                                  : No
Forced                                   : No



Download:
Share-Online.biz Share-Online.bizShare-Online.bizShare-Online.biz | Rapidgator.net Rapidgator.netRapidgator.netRapidgator.net
 

Kommentare