DNS SERVER AENDERNum der staatlichen Zensur zu umgehen. Sollten wir von eurem Provider geseprrt werden, nutzt den TOR BROWSER oder ändert euren DNS SERVER.

Filmwünsche können bei uns im Forum abgegeben werden

Wir Speichern Nicht




 
 
 
Top Releases
Mollys.Game.Alles.auf.eine.K...
Mollys.Game.Alles.auf.eine.K...
Low.Budget.Stuntman.2017.DUA...
Low.Budget.Stuntman.2017.Ger...
Low.Budget.Stuntman.2017.Ger...
Game.Night.2018.MULTI.COMPLE...
God.of.War.2017.MULTi.COMPLE...
God.of.War.2017.German.1080p...
God.of.War.2017.German.720p....
I.Kill.Giants.2017.MULTi.COM...

Cinedubs
Die.Frau.die.vorausgeht.2017...
Die.Frau.die.vorausgeht.2017...
Super.Troopers.2.2018.German...
Thoroughbreds.2017.German.AC...
Thoroughbreds.2017.German.AC...
Vom.Ende.einer.Geschichte.20...
Vom.Ende.einer.Geschichte.20...
I.Feel.Pretty.2018.German.AC...
I.Feel.Pretty.2018.German.AC...
Wahrheit.oder.Pflicht.UNCUT....

Neuerscheinungen 2017-18
Queimada.1969.MULTi.COMPLETE...
Dwelling.2016.COMPLETE.BLURA...
Startup.Traue.nur.dir.selbst...
Bitter.Enemies.Only.Gold.Can...
Banditen.Bandits.2001.MULTi....
Black.Mirror.Tod.hinter.Glas...
Black.Mirror.Tod.hinter.Glas...
Barb.Wire.UNRATED.GERMAN.199...
Barb.Wire.UNRATED.GERMAN.199...
The.Atoning.2017.DUAL.COMPLE...

XXX
LetsTryAnal.18.07.05.Adria.R...
PornstarsLikeItBig.18.07.05....
RealWifeStories.18.07.05.Ari...
Babes.18.07.05.Jessa.Rhodes....
21EroticAnal.18.07.05.Lilit....
AGirlKnows.18.07.05.Lexi.Don...
Bang.Glamkore.18.07.05.Linda...
DevilsFilm.Neighborhood.Swin...
ExxxtraSmall.18.07.05.Eva.Yi...
FamilyStrokes.18.07.05.Sarah...
OnlyBlowJob.18.07.05.Paola.G...
Private.18.07.05.Daniella.Ma...
SweetSinner.The.Voyeur.2.XXX...
TrenchCoatX.18.07.04.Bree.Da...
Watch4Beauty.18.07.05.Ariela...
Fitting-Room.18.07.05.Little...
PornMegaLoad.18.07.04.Best.A...
PornMegaLoad.18.07.04.Elle.V...
UltimateSurrender.18.07.04.C...
UpHerAsshole.18.07.05.Anny.A...

3D
Ready.Player.One.2018.3D.HOU...
Ready.Player.One.2018.3D.HSB...
Ready.Player.One.3D.2018.MUL...
Black.Panther.3D.2018.MULTI....
Black.Panther.3D.HOU.2018.Ge...
Black.Panther.3D.HSBS.2018.G...
Best.of.3D.vol.04.-.06.GERMA...
Tomb.Raider.2018.3D.HOU.Germ...
Tomb.Raider.2018.3D.HSBS.Ger...
Tomb.Raider.2018.3D.COMPLETE...
Zombies.Ueberlebe.die.Untote...
Der.Dschungel.Der.Zauber.ein...
Penthouse.Presents.Sexy.Sing...
The.LEGO.Ninjago.Movie.3D.20...
Zombies.Ueberlebe.die.Untote...

Old_Stuff
Meine.liebe.Rabenmutter.germ...
Da.Vincis.Demons.S01.Complet...
Eragon.Das.Vermaechtnis.der....
Adele.und.das.Geheimnis.des....
Die.fabelhafte.Welt.der.Amel...
Haus.des.Geldes.S01.German.M...
How.I.Met.Your.Mother.S01.Ge...
The.Dark.Knight.Rises.2012.M...
Weissensee.S03.2015.GERMAN.C...
Weissensee.S01+S02.2010.GERM...
Die.Unglaublichen.-.The.Incr...
Der.grosse.Trick.1978.German...
Sully.2016.MULTi.COMPLETE.BL...
Tremors.3.Die.neue.Brut.2001...
Die.Indianer.von.Cleveland.2...

Filme
Outside.The.Law.2002.German....
Two.Weeks.-.Im.Kreise.ihrer....
Die.Legende.Von.Omar.The.Kee...
Peters.Friends.1992.German.A...
Peters.Friends.1992.German.A...
Katzenmenschen.Restored.1942...
Katzenmenschen.1942.Restored...
Das.Reich.der.Sonne.1987.Blu...
Reds.1981.German.AC3D.DL.108...
Schneller.als.der.Tod.1995.G...
Das.Zeitraetsel.2018.German....
Haengt.ihn.hoeher.1968.Germa...
Haengt.ihn.hoeher.1968.Germa...
Schlaraffenhaus.UNCUT.GERMAN...
Second.in.Command.2006.Germa...
The.White.Princess.S01.COMPL...
South.Central.In.den.Strasse...
Trespassers.Blood.Waves.UNRA...
The.White.Princess.S01.COMPL...
Geheimakte.Otto.Waalkes-Harr...
Supergirl.S03.GERMAN.720p.HD...
How.to.Get.Away.with.Murder....
The.Flash.2014.S04.GERMAN.72...
Gotham.S04.GERMAN.720p.HDTV....

 
 
House.of.Z.2016.1080p.WEB.x264-CONVOY
Jahr: 2016
Genre: Dokumentation
Sprache: Englisch AC3
Laufzeit: 1h 27mn
Bitrate: 6 158 Kbps
Format: MKV
Größe: 3.77 GiB
Release:

Beschreibung:

A feature documentary on the life and career of designer Zac Posen.



Complete name                            : house.of.z.2016.1080p.web.x264-convoy.mkv
Format                                   : Matroska
Format version                           : Version 4 / Version 2
File size                                : 3.77 GiB
Duration                                 : 1h 27mn
Overall bit rate mode                    : Variable
Overall bit rate                         : 6 158 Kbps
Movie name                               : House.of.Z.2016.1080p.WEB.x264-CONVOY
Encoded date                             : UTC 2017-09-15 22:03:27
Writing application                      : mkvmerge v11.0.0 ('Alive') 64bit
Writing library                          : Lavf58.0.0
DURATION                                 : 01:23:36.595000000
NUMBER_OF_FRAMES                         : 1303
NUMBER_OF_BYTES                          : 55339
_STATISTICS_WRITING_APP                  : mkvmerge v11.0.0 ('Alive') 64bit
_STATISTICS_WRITING_DATE_UTC             : 2018-01-08 00:09:48
_STATISTICS_TAGS                         : BPS DURATION NUMBER_OF_FRAMES NUMBER_OF_BYTES

Video
ID                                       : 1
Format                                   : AVC
Format/Info                              : Advanced Video Codec
Format profile                           : Main@L4.0
Format settings, CABAC                   : Yes
Format settings, ReFrames                : 3 frames
Codec ID                                 : V_MPEG4/ISO/AVC
Duration                                 : 1h 27mn
Bit rate mode                            : Variable
Bit rate                                 : 5 800 Kbps
Maximum bit rate                         : 8 700 Kbps
Width                                    : 1 920 pixels
Height                                   : 1 080 pixels
Display aspect ratio                     : 16:9
Frame rate mode                          : Constant
Frame rate                               : 23.976 fps
Color space                              : YUV
Chroma subsampling                       : 4:2:0
Bit depth                                : 8 bits
Scan type                                : Progressive
Bits/(Pixel*Frame)                       : 0.117
Stream size                              : 3.46 GiB (92%)
Writing library                          : x264 core 148
Encoding settings                        : cabac=1 / ref=3 / deblock=1:0:0 / analyse=0x1:0x111 / me=umh / subme=10 / psy=1 / psy_rd=1.00:0.00 / mixed_ref=1 / me_range=24 / chroma_me=1 / trellis=2 / 8x8dct=0 / cqm=0 / deadzone=21,11 / fast_pskip=1 / chroma_qp_offset=-2 / threads=8 / lookahead_threads=1 / sliced_threads=0 / nr=0 / decimate=1 / interlaced=0 / bluray_compat=0 / stitchable=1 / constrained_intra=0 / bframes=2 / b_pyramid=0 / b_adapt=2 / b_bias=0 / direct=3 / weightb=1 / open_gop=0 / weightp=2 / keyint=48 / keyint_min=25 / scenecut=0 / intra_refresh=0 / rc_lookahead=48 / rc=2pass / mbtree=1 / bitrate=5800 / ratetol=1.0 / qcomp=0.50 / qpmin=6 / qpmax=51 / qpstep=4 / cplxblur=20.0 / qblur=0.5 / vbv_maxrate=8700 / vbv_bufsize=11600 / nal_hrd=vbr / filler=0 / ip_ratio=1.40 / aq=1:1.00
Default                                  : Yes
Forced                                   : No
Encoded date                             : UTC 2017-09-15 22:03:27
HANDLER_NAME                             : Audio Media Handler
DURATION                                 : 01:27:32.384000000
NUMBER_OF_FRAMES                         : 164137
NUMBER_OF_BYTES                          : 252114432
_STATISTICS_WRITING_APP                  : mkvmerge v11.0.0 ('Alive') 64bit
_STATISTICS_WRITING_DATE_UTC             : 2018-01-08 00:09:48
_STATISTICS_TAGS                         : BPS DURATION NUMBER_OF_FRAMES NUMBER_OF_BYTES

Audio
ID                                       : 2
Format                                   : AC-3
Format/Info                              : Audio Coding 3
Mode extension                           : CM (complete main)
Format settings, Endianness              : Big
Codec ID                                 : A_AC3
Duration                                 : 1h 27mn
Bit rate mode                            : Constant
Bit rate                                 : 384 Kbps
Channel(s)                               : 6 channels
Channel positions                        : Front: L C R, Side: L R, LFE
Sampling rate                            : 48.0 KHz
Bit depth                                : 16 bits
Compression mode                         : Lossy
Stream size                              : 240 MiB (6%)
Language                                 : English
Default                                  : Yes
Forced                                   : No

Text #1
ID                                       : 3
Format                                   : UTF-8
Codec ID                                 : S_TEXT/UTF8
Codec ID/Info                            : UTF-8 Plain Text
Title                                    : English
Language                                 : English
Default                                  : No
Forced                                   : No

Text #2
ID                                       : 4
Format                                   : UTF-8
Codec ID                                 : S_TEXT/UTF8
Codec ID/Info                            : UTF-8 Plain Text
Title                                    : Forced
Language                                 : English
Default                                  : Yes
Forced                                   : Yes

Text #3
ID                                       : 5
Format                                   : UTF-8
Codec ID                                 : S_TEXT/UTF8
Codec ID/Info                            : UTF-8 Plain Text
Title                                    : Spanish
Language                                 : Spanish
Default                                  : No
Forced                                   : No

Text #4
ID                                       : 6
Format                                   : UTF-8
Codec ID                                 : S_TEXT/UTF8
Codec ID/Info                            : UTF-8 Plain Text
Title                                    : German
Language                                 : German
Default                                  : No
Forced                                   : No

Text #5
ID                                       : 7
Format                                   : UTF-8
Codec ID                                 : S_TEXT/UTF8
Codec ID/Info                            : UTF-8 Plain Text
Title                                    : Italian
Language                                 : Italian
Default                                  : No
Forced                                   : No

Text #6
ID                                       : 8
Format                                   : UTF-8
Codec ID                                 : S_TEXT/UTF8
Codec ID/Info                            : UTF-8 Plain Text
Title                                    : French
Language                                 : French
Default                                  : No
Forced                                   : No



Download:
Share Online Share OnlineShare OnlineShare Online
 

Kommentare