DNS SERVER AENDERNum der staatlichen Zensur zu umgehen. Sollten wir von eurem Provider geseprrt werden, nutzt den TOR BROWSER oder ändert euren DNS SERVER.

Filmwünsche können bei uns im Forum abgegeben werden

Wir Speichern Nicht




 
 
 
Top Releases
The.Seagull.Eine.unerhoerte....
Racer.and.the.Jailbird.2017....
Jurassic.World.2.Das.gefalle...
3.Tage.in.Quiberon.2018.GERM...
3.Tage.in.Quiberon.2018.GERM...
Norman.2016.German.AC3D.DL.1...
Wo.steckt.Sidney.Hall.2017.G...
Chappie.2015.German.AC3.DL.1...
Solo.A.Star.Wars.Story.2018....
Der.Buchladen.der.Florance.G...

Cinedubs
Hotel.Transsilvanien.3.Ein.M...
Hotel.Transsilvanien.3.Ein.M...
The.Seagull.Eine.unerhoerte....
The.Seagull.Eine.unerhoerte....
First.Reformed.2017.German.D...
Mamma.Mia.2.Here.We.Go.Again...
First.Reformed.German.DL.AC3...
The.First.Purge.2018.German....
No.Way.Out.Gegen.die.Flammen...
First.Reformed.German.DL.AC3...

Neuerscheinungen 2017-18
Mom.and.Dad.2017.MULTI.COMPL...
The.Asian.Connection.2016.CO...
Mom.and.Dad.2017.GERMAN.720p...
Solo.A.Star.Wars.Story.2018....
3.Tage.in.Quiberon.2018.GERM...
The.Asian.Connection.2016.GE...
The.Asian.Connection.2016.GE...
Sharknado.6.The.Last.One.201...
Sharknado.6.The.Last.One.201...
Mom.and.Dad.2017.German.AC3....

XXX
PropertySex.18.09.07.Vina.Sk...
PornstarPlatinum.18.09.09.Av...
PublicPickUps.18.09.10.Lucia...
PremiumBukkake.18.09.07.Cami...
Pure-BBW.18.07.26.Anal.Sex.I...
RKPrime.18.09.10.Jynx.Maze.A...
RealGirlsGoneBad.18.09.01.Se...
PremiumBukkake.18.09.05.Cami...
PornMegaLoad.18.09.09.Rachel...
PornstarPlatinum.18.09.10.Br...
Pure-BBW.18.08.02.Mermaid.Bb...
Pure-BBW.18.09.06.Tattooed.S...
Pure-BBW.18.08.09.Redhead.Ss...
Pure-BBW.18.08.30.Sensual.Ne...
PureMature.18.09.07.Isabelle...
Pure-BBW.18.08.23.Oiled.Up.A...
Pure-BBW.18.08.16.Oiling.Up....
Private.Tropical.29.Sluts.An...
RealWifeStories.18.09.09.Lel...
PremiumBukkake.18.08.24.Jime...

3D
Sharknado.6.The.Last.One.3D....
Solo.A.Star.Wars.Story.3D.20...
Solo.A.Star.Wars.Story.3D.20...
Die.Biene.Maja.2.Die.Honigsp...
Avengers.Infinity.War.3D.201...
Avengers.Infinity.War.3D.201...
Rampage.Big.Meets.Bigger.3D....
Rampage.Big.Meets.Bigger.3D....
Rampage.Big.Meets.Bigger.3D....
Winter.Games.3D.2013.DUAL.CO...
Tomb.Raider.3D.2018.German.7...
Rampage.Big.Meets.Bigger.3D....
Rampage.Big.Meets.Bigger.3D....
Tomb.Raider.3D.2018.MULTi.CO...
Pacific.Rim.Uprising.3D.2018...

Old_Stuff
Schimanski.-.Duisburg.Ruhror...
Akte.X.S02.German.DTS.DL.108...
How.I.Met.Your.Mother.S02.Ge...
Akte.X.S01.German.DTS.DL.108...
Den.Himmel.gibts.echt.DL.108...
Vikings.S02.German.DL.1080p....
Be.Kind.Rewind.Abgedreht.200...
Be.Kind.Rewind.Abgedreht.200...
Dracula.The.Dark.Lord.2012.G...
21.2008.German.DL.1080p.BluR...
Achtung.fertig.WK.Swissgerma...
The.Ouija.Exorcism.2015.MULT...
Meine.liebe.Rabenmutter.germ...
Da.Vincis.Demons.S01.Complet...
Eragon.Das.Vermaechtnis.der....

Filme
Tanz.der.Teufel.1981.UNCUT.R...
Tao.Jie.Ein.einfaches.Leben....
Taped.2012.GERMAN.1080p.HDTV...
Arrow.S06.GERMAN.DL.1080p.HD...
Arrow.S06.GERMAN.DL.720p.HDT...
Taras.Bulba.1962.GERMAN.AC3D...
Better.Call.Saul.S04.German....
Die.Simpsons.S29.GERMAN.DUBB...
Power.2014.S05.German.DL.DUB...
Power.2014.S05.German.DL.DUB...
The.Deuce.S02.GERMAN.DL.1080...
The.Deuce.S02.GERMAN.DL.720p...
Taste.the.Waste.2010.German....
Taste.of.Money.Die.Macht.der...
Tasmanian.Devils.Die.Jagd.ha...
Legends.of.Tomorrow.S03.Germ...
Legends.of.Tomorrow.S03.GERM...
Pater.Brown.-.Er.kanns.nicht...
Jumanji.4K.Remastered.1995.G...
X.Men.Der.letzte.Widerstand....
No.Good.Deed.2002.GERMAN.DL....
Scum.-.Abschaum.1979.German....
The.Big.Bang.Theory.S11.Germ...
The.Big.Bang.Theory.S11.Germ...

 
 
The.Big.Bang.Theory.S11.German.DD51.Dubbed.DL.1080p.AmazonHD.x264-TVS​
Jahr: 2017
Genre: Komödie
Sprache: Deutsch AC3 | Englisch AC3
Laufzeit: 20min je Folge
Bitrate: 10 Mbps
Format: MKV
Größe: 1,6 GB je Folge
Release:

Beschreibung:

In der Serie geht es um die zwei scharfsinnigen, jungen Physiker Sheldon (J. Parsons) und Leonard (J. Galecki), die gemeinsam in einer WG leben. Direkt neben ihnen wohnt die blonde und ebenso sexy Kellnerin Penny (K. Cuoco). Aufgrund ihrer Haarfarbe und Naivität haben die beiden Penny schon in die Schublade der klischeehaften Blondinen gesteckt. Hinzu gesellen sich noch weitere Intelligenzbestien, wie der jüdischen Ingenieur Howard (S. Helberg) sowie der indische Astrophysiker Raj (K. Nayyar). Eins haben die vier Freunde gemein, ihre große Passion für Comics, Star Trek und andere SciFi Filme, Forschung und Computerspiele sowie ihre Zusammenarbeit im California Institute of Technology in Pasadena, Los Angeles.

 

enthaltene Folgen:

 

S11E01-S11E16

 

The.Big.Bang.Theory.S11E17.Die.Athenaeum-Angelegenheit.German.DD51.Dubbed.DL.1080p.AmazonHD.x264-TVS NEU



General

Complete name                            : The.Big.Bang.Theory.S11E01.Das.Doktor-Ramona-Dankeschoen.German.DD51.Dubbed.DL.1080p.AmazonHD.x264-TVS\tvs-tbbt-dd51-ded-dl-18p-azhd-x264-1101.mkv
Format                                   : Matroska
Format version                           : Version 4 / Version 2
File size                                : 1.60 GiB
Duration                                 : 19mn 45s
Overall bit rate mode                    : Variable
Overall bit rate                         : 11.6 Mbps
Encoded date                             : UTC 2018-01-09 01:01:13
Writing application                      : mkvmerge v19.0.0 ('Brave Captain') 64-bit
Writing library                          : libebml v1.3.5 + libmatroska v1.4.8
DURATION                                 : 00:19:12.030000000
NUMBER_OF_FRAMES                         : 463
NUMBER_OF_BYTES                          : 14294
_STATISTICS_WRITING_APP                  : mkvmerge v19.0.0 ('Brave Captain') 64-bit
_STATISTICS_WRITING_DATE_UTC             : 2018-01-09 01:01:13
_STATISTICS_TAGS                         : BPS DURATION NUMBER_OF_FRAMES NUMBER_OF_BYTES

Video
ID                                       : 1
Format                                   : AVC
Format/Info                              : Advanced Video Codec
Format profile                           : High@L4.0
Format settings, CABAC                   : Yes
Format settings, ReFrames                : 4 frames
Codec ID                                 : V_MPEG4/ISO/AVC
Duration                                 : 19mn 45s
Bit rate mode                            : Variable
Bit rate                                 : 10.5 Mbps
Maximum bit rate                         : 15.0 Mbps
Width                                    : 1 920 pixels
Height                                   : 1 080 pixels
Display aspect ratio                     : 16:9
Frame rate mode                          : Constant
Frame rate                               : 25.000 fps
Color space                              : YUV
Chroma subsampling                       : 4:2:0
Bit depth                                : 8 bits
Scan type                                : Progressive
Bits/(Pixel*Frame)                       : 0.202
Stream size                              : 1.45 GiB (90%)
Default                                  : Yes
Forced                                   : No
Color primaries                          : BT.709
Transfer characteristics                 : BT.709
Matrix coefficients                      : BT.709

Audio #1
ID                                       : 2
Format                                   : AC-3
Format/Info                              : Audio Coding 3
Mode extension                           : CM (complete main)
Format settings, Endianness              : Big
Codec ID                                 : A_AC3
Duration                                 : 19mn 45s
Bit rate mode                            : Constant
Bit rate                                 : 448 Kbps
Channel(s)                               : 6 channels
Channel positions                        : Front: L C R, Side: L R, LFE
Sampling rate                            : 48.0 KHz
Bit depth                                : 16 bits
Compression mode                         : Lossy
Stream size                              : 63.3 MiB (4%)
Language                                 : German
Default                                  : Yes
Forced                                   : No

Audio #2
ID                                       : 3
Format                                   : AC-3
Format/Info                              : Audio Coding 3
Mode extension                           : CM (complete main)
Format settings, Endianness              : Big
Codec ID                                 : A_AC3
Duration                                 : 19mn 45s
Bit rate mode                            : Constant
Bit rate                                 : 448 Kbps
Channel(s)                               : 6 channels
Channel positions                        : Front: L C R, Side: L R, LFE
Sampling rate                            : 48.0 KHz
Bit depth                                : 16 bits
Compression mode                         : Lossy
Stream size                              : 63.3 MiB (4%)
Language                                 : English
Default                                  : No
Forced                                   : No

Text
ID                                       : 4
Format                                   : UTF-8
Codec ID                                 : S_TEXT/UTF8
Codec ID/Info                            : UTF-8 Plain Text
Language                                 : English
Default                                  : No
Forced                                   : No




Download:
Share-Online.biz Share-Online.bizShare-Online.bizShare-Online.biz | Rapidgator.net Rapidgator.netRapidgator.netRapidgator.net
 

Kommentare

  1. Geschrieben am 16. January 2018, 17:30 Uhr von Patrick · #

    Dankeschön!

  2. Geschrieben am 17. April 2018, 09:55 Uhr von MarkesVonHinten · #

    Bitte mal den Namen der E13 abändern. Ist etwas irreführend im 1080p Release ne 720p Version zu finden ohne sie miteinander verglichen zu haben.
    Ist aber die 1080p Verison wenn man sich die Größen anschaut. Heißt: Datei sollte passen, nur der Name noch nicht.
    thx