Die aktuelle Sicherheitswarnung bei Filecrypt kann ignoriert werden! Man kümmert sich um das Problem!

DNS SERVER AENDERNum der staatlichen Zensur zu umgehen. Sollten wir von eurem Provider geseprrt werden, nutzt den TOR BROWSER oder ändert euren DNS SERVER.

Filmwünsche können bei uns im Forum abgegeben werden

Wir Speichern Nicht




 
 
 
Top Releases
Allied.2016.MULTi.COMPLETE.U...
Die.Unsichtbaren.Wir.wollen....
Bill.Was.fuer.ein.Theater.Bi...
Bill.Was.fuer.ein.Theater.20...
Bill.Was.fuer.ein.Theater.20...
Lady.Macbeth.2016.MULTI.COMP...
Lady.Macbeth.2016.GERMAN.DL....
Lady.Macbeth.2016.GERMAN.720...
Star.Wars.Episode.VIII.Die.l...
La.Melodie.Der.Klang.von.Par...

Cinedubs
Peter.Hase.2018.German.MD.DL...
Peter.Hase.2018.German.MD.DL...
Pacific.Rim.2.Uprising.Germa...
Pacific.Rim.2.Uprising.Germa...
Winchester.2018.German.AC3MD...
Winchester.2018.German.AC3MD...
Red.Sparrow.German.DL.AC3.Du...
Red.Sparrow.German.DL.AC3.Du...
The.Humanity.Bureau.2017.Ger...
Wer.ist.Daddy.German.DL.AC3....

Neuerscheinungen 2017-18
Death.Racers.2008.GERMAN.DL....
Sugar.Mountain.Spurlos.in.Al...
Sugar.Mountain.Spurlos.in.Al...
Death.Racers.2008.COMPLETE.B...
House.Harker.Vampirjaeger.wi...
Battle.For.Karbala.2015.GERM...
Amelie.rennt.2017.GERMAN.108...
Death.Racers.2008.GERMAN.720...
Amelie.rennt.2017.GERMAN.720...
House.Harker.Vampirjaeger.wi...

XXX
WankItNow.18.03.17.Dolly.Suc...
GetYourKneesDirty.18.03.12.K...
WebYoung.18.03.16.Elsa.Jean....
Geki.Ranko.Yuki.Aida.XXX.108...
BlackSinner.17.06.20.Sheena....
ATKHairy.18.03.19.Niki.Snow....
GermanGooGirls.18.03.16.Ria....
Geki.Ranko.Yuki.Aida.XXX.720...
Watch4Beauty.18.03.21.Angel....
BlackSinner.17.06.20.Rochell...
WhenGirlsPlay.18.03.20.Amili...
Vixen.18.03.20.Tori.Black.XX...
YoungBusty.17.12.25.Jeanne.X...
YoungBusty.17.12.18.Nicole.L...
GhettoGaggers.E407.Shae.Spre...
YoungBusty.17.12.04.Nikki.Dr...
WetAndPuffy.18.03.19.Lucia.D...
Blacked.18.03.16.Abella.Dang...
GhettoGaggers.E406.Sharee.2....
YoungBusty.17.12.11.Anabelle...

3D
Star.Wars.Episode.VIII.Die.l...
Star.Wars.Episode.VIII.Die.l...
Star.Wars.Episode.VIII.Die.l...
Jumanji.Welcome.To.The.Jungl...
Star.Wars.The.Last.Jedi.2017...
Final.Storm.Der.Untergang.de...
Final.Storm.Der.Untergang.de...
Jumanji.Willkommen.im.Dschun...
Star.Wars.Episode.VIII.Die.l...
Star.Wars.Episode.VIII.Die.l...
Nightmare.Schlaf.nicht.ein.2...
Justice.League.3D.2017.HOU.G...
Coco.Lebendiger.als.das.Lebe...
Coco.Lebendiger.als.das.Lebe...
Coco.Lebendiger.als.das.Lebe...

Old_Stuff
North.Country.Kaltes.Land.20...
Fuenf.Freunde.German.1080p.B...
Sin.City.2005.Theatrical.Cut...
Nuts.Durchgedreht.1987.Germa...
Antarctica.Gefangen.Im.Eis.2...
Terminator.2.Tag.Der.Abrechn...
Winters.Tale.2014.German.108...
Kampf.Der.Titanen.2010.Germa...
Bibi.und.Tina.Tohuwabohu.Tot...
Bibi.und.Tina.voll.Verhext.2...
Cargo.Da.draussen.bist.du.al...
The.Purge.Die.Saeuberung.201...
The.Purge.Anarchy.2014.MULTi...
The.Purge.3.Election.Year.20...
Orphan.Black.S02.German.DL.1...

Filme
In.the.Crossfire.2010.German...
Famine.UNCUT.GERMAN.2011.DL....
Um.jeden.Preis.2014.German.D...
Rosannas.letzter.Wille.1997....
Higher.Learning.-.Die.Rebell...
Backtrack.2014.German.DL.108...
Gladiator.2000.German.DTS.Op...
Bangkok.Adrenalin.2009.Germa...
Blind.Date.1987.German.AC3D....
Nachdem.ich.ihm.begegnet.bin...
Leprechaun.1-6.Hexalogie.Ger...
Alaska.1996.German.AC3D.DL.1...
Jab.We.Met.-.Als.ich.Dich.tr...
Koenigliche.Hochzeit.1951.Ge...
MotoGP.Moto2.Moto3.Saison.20...
MotoGP.Moto2.Moto3.Saison.20...
King.Kong.2005.EXTENDED.GERM...
Ein.Ticket.fuer.zwei.1987.Ge...
King.Kong.2005.EXTENDED.Germ...
King.Kong.2005.THEATRICAL.Ge...
Sugar.Mountain.Spurlos.in.Al...
Bram.Stokers.Dracula.1992.RE...
Eolomea.1972.German.1080p.Bl...
Eolomea.1972.German.720p.Blu...

 
 
Once.Upon.a.Time.in.Venice.2017.German.AC3.DL.1080p.BluRay.x265-FuN
Jahr: 2017
Genre: Action, Komödie
Sprache: Deutsch AC3 | Englisch AC3
Laufzeit: 1h 34mn
Bitrate: 2 111 Kbps
Format: MKV
Größe: 1.39 GiB
Release:

Beschreibung:
Das Leben eines Privatdetektivs (Bruce Willis), dessen beste Jahre schon lange hinter ihm liegen, wird auf den Kopf gestellt, als sein geliebtes Haustier "Buddy" von einer berüchtigten Gangster-Bande entführt wird. Doch das ist nicht sein einziges Problem, denn während er sich auf der Suche nach seinem Haustier befindet, macht ein rachsüchtiges samoanisches Geschwisterpaar Jagd auf ihn, da sie noch eine alte Rechnung zu begleichen haben...



Complete name                            : Once.Upon.a.Time.in.Venice.x265.mkv
Format                                   : Matroska
Format version                           : Version 4 / Version 2
File size                                : 1.39 GiB
Duration                                 : 1h 34mn
Overall bit rate                         : 2 111 Kbps
Encoded date                             : UTC 2017-11-25T03:59:15Z
Writing application                      : mkvmerge v10.0.0 ('To Drown In You') 64bit
Writing library                          : Lavf57.7.2
DURATION                                 : 01:29:12.337000000
NUMBER_OF_FRAMES                         : 1269
NUMBER_OF_BYTES                          : 3950519
_STATISTICS_WRITING_APP                  : mkvmerge v10.0.0 ('To Drown In You') 64bit
_STATISTICS_WRITING_DATE_UTC             : 2017-12-01 10:10:53
_STATISTICS_TAGS                         : BPS DURATION NUMBER_OF_FRAMES NUMBER_OF_BYTES

Video
ID                                       : 1
Format                                   : HEVC
Format/Info                              : High Efficiency Video Coding
Format profile                           : Main@L4.0
Codec ID                                 : V_MPEGH/ISO/HEVC
Duration                                 : 1h 34mn
Bit rate                                 : 1 301 Kbps
Width                                    : 1 920 pixels
Height                                   : 800 pixels
Display aspect ratio                     : 2.40:1
Frame rate mode                          : Constant
Frame rate                               : 23.976 fps
Color space                              : YUV
Chroma subsampling                       : 4:2:0
Bit depth                                : 8 bits
Bits/(Pixel*Frame)                       : 0.035
Stream size                              : 875 MiB (62%)
Writing library                          : x265 2.1:[Windows][GCC 5.3.1][64 bit] 8bit
Encoding settings                        : wpp / ctu=64 / min-cu-size=8 / max-tu-size=32 / tu-intra-depth=1 / tu-inter-depth=1 / me=1 / subme=2 / merange=57 / no-rect / no-amp / max-merge=2 / temporal-mvp / no-early-skip / rskip / rdpenalty=0 / no-tskip / no-tskip-fast / no-strong-intra-smoothing / no-lossless / no-cu-lossless / no-constrained-intra / no-fast-intra / open-gop / no-temporal-layers / interlace=0 / keyint=240 / min-keyint=24 / scenecut=40 / rc-lookahead=20 / lookahead-slices=5 / bframes=4 / bframe-bias=0 / b-adapt=2 / ref=3 / limit-refs=3 / no-limit-modes / weightp / no-weightb / aq-mode=1 / qg-size=32 / aq-strength=1.00 / cbqpoffs=0 / crqpoffs=0 / rd=3 / psy-rd=2.00 / rdoq-level=0 / psy-rdoq=0.00 / log2-max-poc-lsb=8 / no-rd-refine / signhide / deblock=0:0 / no-sao / no-sao-non-deblock / b-pyramid / cutree / no-intra-refresh / rc=crf / crf=23.0 / qcomp=0.60 / qpmin=0 / qpmax=69 / qpstep=4 / ipratio=1.40 / pbratio=1.30
Default                                  : Yes
Forced                                   : No
DURATION                                 : 01:34:02.137000000
NUMBER_OF_FRAMES                         : 135276
NUMBER_OF_BYTES                          : 942024602
_STATISTICS_WRITING_APP                  : mkvmerge v10.0.0 ('To Drown In You') 64bit
_STATISTICS_WRITING_DATE_UTC             : 2017-12-01 10:10:53
_STATISTICS_TAGS                         : BPS DURATION NUMBER_OF_FRAMES NUMBER_OF_BYTES

Audio #1
ID                                       : 2
Format                                   : AC-3
Format/Info                              : Audio Coding 3
Mode extension                           : CM (complete main)
Format settings, Endianness              : Big
Codec ID                                 : A_AC3
Duration                                 : 1h 34mn
Bit rate mode                            : Constant
Bit rate                                 : 384 Kbps
Channel(s)                               : 6 channels
Channel positions                        : Front: L C R, Side: L R, LFE
Sampling rate                            : 48.0 KHz
Bit depth                                : 16 bits
Compression mode                         : Lossy
Delay relative to video                  : -5ms
Stream size                              : 258 MiB (18%)
Title                                    : Surround
Language                                 : German
Default                                  : Yes
Forced                                   : No
DURATION                                 : 01:34:02.112000000
NUMBER_OF_FRAMES                         : 176316
NUMBER_OF_BYTES                          : 270821376
_STATISTICS_WRITING_APP                  : mkvmerge v10.0.0 ('To Drown In You') 64bit
_STATISTICS_WRITING_DATE_UTC             : 2017-12-01 10:10:53
_STATISTICS_TAGS                         : BPS DURATION NUMBER_OF_FRAMES NUMBER_OF_BYTES

Audio #2
ID                                       : 3
Format                                   : AC-3
Format/Info                              : Audio Coding 3
Mode extension                           : CM (complete main)
Format settings, Endianness              : Big
Codec ID                                 : A_AC3
Duration                                 : 1h 34mn
Bit rate mode                            : Constant
Bit rate                                 : 384 Kbps
Channel(s)                               : 6 channels
Channel positions                        : Front: L C R, Side: L R, LFE
Sampling rate                            : 48.0 KHz
Bit depth                                : 16 bits
Compression mode                         : Lossy
Delay relative to video                  : -5ms
Stream size                              : 258 MiB (18%)
Title                                    : Surround
Language                                 : English
Default                                  : No
Forced                                   : No
DURATION                                 : 01:34:02.112000000
NUMBER_OF_FRAMES                         : 176316
NUMBER_OF_BYTES                          : 270821376
_STATISTICS_WRITING_APP                  : mkvmerge v10.0.0 ('To Drown In You') 64bit
_STATISTICS_WRITING_DATE_UTC             : 2017-12-01 10:10:53
_STATISTICS_TAGS                         : BPS DURATION NUMBER_OF_FRAMES NUMBER_OF_BYTES

Text #1
ID                                       : 4
Format                                   : ASS
Codec ID                                 : S_TEXT/ASS
Codec ID/Info                            : Advanced Sub Station Alpha
Compression mode                         : Lossless
Title                                    : German Forced
Language                                 : German
Default                                  : Yes
Forced                                   : Yes
DURATION                                 : 00:33:22.753000000
NUMBER_OF_FRAMES                         : 6
NUMBER_OF_BYTES                          : 425
_STATISTICS_WRITING_APP                  : mkvmerge v10.0.0 ('To Drown In You') 64bit
_STATISTICS_WRITING_DATE_UTC             : 2017-12-01 10:10:53
_STATISTICS_TAGS                         : BPS DURATION NUMBER_OF_FRAMES NUMBER_OF_BYTES

Text #2
ID                                       : 5
Format                                   : VobSub
Muxing mode                              : zlib
Codec ID                                 : S_VOBSUB
Codec ID/Info                            : The same subtitle format used on DVDs
Title                                    : German
Language                                 : German
Default                                  : No
Forced                                   : No



Download:
Share Online Share OnlineShare OnlineShare Online
 

Kommentare