DNS SERVER AENDERNum der staatlichen Zensur zu umgehen. Sollten wir von eurem Provider geseprrt werden, nutzt den TOR BROWSER oder ändert euren DNS SERVER.

Filmwünsche können bei uns im Forum abgegeben werden

Wir Speichern Nicht




 
 
 
Top Releases
Mollys.Game.Alles.auf.eine.K...
Mollys.Game.Alles.auf.eine.K...
Low.Budget.Stuntman.2017.DUA...
Low.Budget.Stuntman.2017.Ger...
Low.Budget.Stuntman.2017.Ger...
Game.Night.2018.MULTI.COMPLE...
God.of.War.2017.MULTi.COMPLE...
God.of.War.2017.German.1080p...
God.of.War.2017.German.720p....
I.Kill.Giants.2017.MULTi.COM...

Cinedubs
Die.Frau.die.vorausgeht.2017...
Die.Frau.die.vorausgeht.2017...
Super.Troopers.2.2018.German...
Thoroughbreds.2017.German.AC...
Thoroughbreds.2017.German.AC...
Vom.Ende.einer.Geschichte.20...
Vom.Ende.einer.Geschichte.20...
I.Feel.Pretty.2018.German.AC...
I.Feel.Pretty.2018.German.AC...
Wahrheit.oder.Pflicht.UNCUT....

Neuerscheinungen 2017-18
Queimada.1969.MULTi.COMPLETE...
Dwelling.2016.COMPLETE.BLURA...
Startup.Traue.nur.dir.selbst...
Bitter.Enemies.Only.Gold.Can...
Banditen.Bandits.2001.MULTi....
Black.Mirror.Tod.hinter.Glas...
Black.Mirror.Tod.hinter.Glas...
Barb.Wire.UNRATED.GERMAN.199...
Barb.Wire.UNRATED.GERMAN.199...
The.Atoning.2017.DUAL.COMPLE...

XXX
LetsTryAnal.18.07.05.Adria.R...
PornstarsLikeItBig.18.07.05....
RealWifeStories.18.07.05.Ari...
Babes.18.07.05.Jessa.Rhodes....
21EroticAnal.18.07.05.Lilit....
AGirlKnows.18.07.05.Lexi.Don...
Bang.Glamkore.18.07.05.Linda...
DevilsFilm.Neighborhood.Swin...
ExxxtraSmall.18.07.05.Eva.Yi...
FamilyStrokes.18.07.05.Sarah...
OnlyBlowJob.18.07.05.Paola.G...
Private.18.07.05.Daniella.Ma...
SweetSinner.The.Voyeur.2.XXX...
TrenchCoatX.18.07.04.Bree.Da...
Watch4Beauty.18.07.05.Ariela...
Fitting-Room.18.07.05.Little...
PornMegaLoad.18.07.04.Best.A...
PornMegaLoad.18.07.04.Elle.V...
UltimateSurrender.18.07.04.C...
UpHerAsshole.18.07.05.Anny.A...

3D
Ready.Player.One.2018.3D.HOU...
Ready.Player.One.2018.3D.HSB...
Ready.Player.One.3D.2018.MUL...
Black.Panther.3D.2018.MULTI....
Black.Panther.3D.HOU.2018.Ge...
Black.Panther.3D.HSBS.2018.G...
Best.of.3D.vol.04.-.06.GERMA...
Tomb.Raider.2018.3D.HOU.Germ...
Tomb.Raider.2018.3D.HSBS.Ger...
Tomb.Raider.2018.3D.COMPLETE...
Zombies.Ueberlebe.die.Untote...
Der.Dschungel.Der.Zauber.ein...
Penthouse.Presents.Sexy.Sing...
The.LEGO.Ninjago.Movie.3D.20...
Zombies.Ueberlebe.die.Untote...

Old_Stuff
Meine.liebe.Rabenmutter.germ...
Da.Vincis.Demons.S01.Complet...
Eragon.Das.Vermaechtnis.der....
Adele.und.das.Geheimnis.des....
Die.fabelhafte.Welt.der.Amel...
Haus.des.Geldes.S01.German.M...
How.I.Met.Your.Mother.S01.Ge...
The.Dark.Knight.Rises.2012.M...
Weissensee.S03.2015.GERMAN.C...
Weissensee.S01+S02.2010.GERM...
Die.Unglaublichen.-.The.Incr...
Der.grosse.Trick.1978.German...
Sully.2016.MULTi.COMPLETE.BL...
Tremors.3.Die.neue.Brut.2001...
Die.Indianer.von.Cleveland.2...

Filme
Outside.The.Law.2002.German....
Two.Weeks.-.Im.Kreise.ihrer....
Die.Legende.Von.Omar.The.Kee...
Peters.Friends.1992.German.A...
Peters.Friends.1992.German.A...
Katzenmenschen.Restored.1942...
Katzenmenschen.1942.Restored...
Das.Reich.der.Sonne.1987.Blu...
Reds.1981.German.AC3D.DL.108...
Schneller.als.der.Tod.1995.G...
Das.Zeitraetsel.2018.German....
Haengt.ihn.hoeher.1968.Germa...
Haengt.ihn.hoeher.1968.Germa...
Schlaraffenhaus.UNCUT.GERMAN...
Second.in.Command.2006.Germa...
The.White.Princess.S01.COMPL...
South.Central.In.den.Strasse...
Trespassers.Blood.Waves.UNRA...
The.White.Princess.S01.COMPL...
Geheimakte.Otto.Waalkes-Harr...
Supergirl.S03.GERMAN.720p.HD...
How.to.Get.Away.with.Murder....
The.Flash.2014.S04.GERMAN.72...
Gotham.S04.GERMAN.720p.HDTV....

 
 
Pans.Labyrinth.Remastered.2006.German.AC3D.DL.1080p.US.BluRay.x265-FuN
Jahr: 2006
Genre: Drama | Fantasy | Kriegsfilm
Sprache: Deutsch AC3 | Englisch AC3
Laufzeit: 1h 59mn
Bitrate: 2 322 Kbps
Format: MKV
Größe: 1.94 GiB
Release:

Beschreibung:

1944. Das Mädchen Ofelia (Ivana Baquero) zieht mit ihrer hochschwangeren Mutter (Ariadna Gil) zu deren neuem Gatten (Sergi López) ins ländliche Nordspanien. Der Stiefvater, Kapitän des siegreichen faschistischen Franco-Regimes, geht mit unvorstellbarer Brutalität gegen die Rebellen vor, die sich in den Wäldern verschanzt halten. Schon bei der Ankunft weist Ofelia ein mysteriöses Insekt den Weg in ein altes Steinlabyrinth. Dort haust ein Faun (Doug Jones), der ihr offenbart, sie sei eine verlorene Prinzessin. Er lockt sie immer tiefer in sein Reich.




Complete name                            : Pans.Labyrinth.Remastered.x265.mkv
Format                                   : Matroska
Format version                           : Version 4 / Version 2
File size                                : 1.94 GiB
Duration                                 : 1h 59mn
Overall bit rate                         : 2 322 Kbps
Encoded date                             : UTC 2018-01-06T03:32:31Z
Writing application                      : HandBrake 1.0.7 2017040900
Writing library                          : Lavf57.7.2

Video
ID                                       : 1
Format                                   : HEVC
Format/Info                              : High Efficiency Video Coding
Format profile                           : Main@L4.0
Codec ID                                 : V_MPEGH/ISO/HEVC
Duration                                 : 1h 59mn
Bit rate                                 : 1 508 Kbps
Width                                    : 1 920 pixels
Height                                   : 1 036 pixels
Display aspect ratio                     : 1.85:1
Frame rate mode                          : Constant
Frame rate                               : 23.976 fps
Color space                              : YUV
Chroma subsampling                       : 4:2:0
Bit depth                                : 8 bits
Bits/(Pixel*Frame)                       : 0.032
Stream size                              : 1.26 GiB (65%)
Writing library                          : x265 2.1:[Windows][GCC 5.3.1][64 bit] 8bit
Encoding settings                        : wpp / ctu=64 / min-cu-size=8 / max-tu-size=32 / tu-intra-depth=1 / tu-inter-depth=1 / me=1 / subme=2 / merange=57 / no-rect / no-amp / max-merge=2 / temporal-mvp / no-early-skip / rskip / rdpenalty=0 / no-tskip / no-tskip-fast / no-strong-intra-smoothing / no-lossless / no-cu-lossless / no-constrained-intra / no-fast-intra / open-gop / no-temporal-layers / interlace=0 / keyint=240 / min-keyint=24 / scenecut=40 / rc-lookahead=20 / lookahead-slices=6 / bframes=4 / bframe-bias=0 / b-adapt=2 / ref=3 / limit-refs=3 / no-limit-modes / weightp / no-weightb / aq-mode=1 / qg-size=32 / aq-strength=1.00 / cbqpoffs=0 / crqpoffs=0 / rd=3 / psy-rd=2.00 / rdoq-level=0 / psy-rdoq=0.00 / log2-max-poc-lsb=8 / no-rd-refine / signhide / deblock=0:0 / no-sao / no-sao-non-deblock / b-pyramid / cutree / no-intra-refresh / rc=crf / crf=23.0 / qcomp=0.60 / qpmin=0 / qpmax=69 / qpstep=4 / ipratio=1.40 / pbratio=1.30
Default                                  : Yes
Forced                                   : No

Audio #1
ID                                       : 2
Format                                   : AC-3
Format/Info                              : Audio Coding 3
Mode extension                           : CM (complete main)
Format settings, Endianness              : Big
Codec ID                                 : A_AC3
Duration                                 : 1h 59mn
Bit rate mode                            : Constant
Bit rate                                 : 384 Kbps
Channel(s)                               : 6 channels
Channel positions                        : Front: L C R, Side: L R, LFE
Sampling rate                            : 48.0 KHz
Bit depth                                : 16 bits
Compression mode                         : Lossy
Delay relative to video                  : -5ms
Stream size                              : 328 MiB (17%)
Title                                    : Surround
Language                                 : German
Default                                  : Yes
Forced                                   : No

Audio #2
ID                                       : 3
Format                                   : AC-3
Format/Info                              : Audio Coding 3
Mode extension                           : CM (complete main)
Format settings, Endianness              : Big
Codec ID                                 : A_AC3
Duration                                 : 1h 59mn
Bit rate mode                            : Constant
Bit rate                                 : 384 Kbps
Channel(s)                               : 6 channels
Channel positions                        : Front: L C R, Side: L R, LFE
Sampling rate                            : 48.0 KHz
Bit depth                                : 16 bits
Compression mode                         : Lossy
Delay relative to video                  : -5ms
Stream size                              : 328 MiB (17%)
Title                                    : Surround
Language                                 : Spanish
Default                                  : No
Forced                                   : No

Text #1
ID                                       : 4
Format                                   : ASS
Codec ID                                 : S_TEXT/ASS
Codec ID/Info                            : Advanced Sub Station Alpha
Compression mode                         : Lossless
Language                                 : German
Default                                  : Yes
Forced                                   : Yes

Text #2
ID                                       : 5
Format                                   : VobSub
Codec ID                                 : S_VOBSUB
Codec ID/Info                            : The same subtitle format used on DVDs
Language                                 : English
Default                                  : No
Forced                                   : No



Download:
Share Online Share OnlineShare OnlineShare Online
 

Kommentare