DNS SERVER AENDERNum der staatlichen Zensur zu umgehen. Sollten wir von eurem Provider geseprrt werden, nutzt den TOR BROWSER oder ändert euren DNS SERVER.

Filmwünsche können bei uns im Forum abgegeben werden

Wir Speichern Nicht




 
 
 
Top Releases
Das.Leben.ist.ein.Fest.2017....
Central.Intelligence.EXTENDE...
Wind.River.2017.German.AC3.D...
Wonder.Wheel.2017.GERMAN.720...
Wonder.Wheel.2017.German.DL....
Die.Verlegerin.2017.German.D...
Wonder.Wheel.2017.MULTi.COMP...
Peter.Hase.2018.German.AC3D....
Peter.Hase.2018.German.AC3D....
Nerve.2016.German.AC3.DL.108...

Cinedubs
Ready.Player.One.German.DL.A...
Ready.Player.One.German.DL.A...
Rampage.2018.German.AC3D.DL....
Rampage.2018.German.AC3D.DL....
Tomb.Raider.2018.3D.HSBS.Ger...
Tomb.Raider.2018.3D.HOU.Germ...
Pacific.Rim.2.Uprising.3D.HO...
Pacific.Rim.2.Uprising.3D.HS...
Pacific.Rim.2.Uprising.Germa...
Pacific.Rim.2.Uprising.Germa...

Neuerscheinungen 2017-18
Wahrheit.oder.Pflicht.2018.G...
Die.gnadenlosen.Vier.Posse.f...
Die.Wall.Street.Verschwoerun...
Die.Wall.Street.Verschwoerun...
Die.Wall.Street.Verschwoerun...
The.Lodgers.2017.MULTI.COMPL...
Hilfe.ich.hab.meine.Eltern.g...
Hilfe.Ich.hab.meine.Eltern.g...
Hilfe.Ich.habe.meine.Eltern....
Stephanie.-.Das.Boese.in.ihr...

XXX
HollyRandall.18.05.22.Ivy.Wo...
MeloneChallenge.18.06.12.Wen...
MetArtX.18.06.12.Melody.Wyld...
TheLifeErotic.18.06.12.Kate....
PornMegaLoad.18.06.11.Whitne...
LaCochonne.18.06.12.Sonya.Du...
HollyRandall.18.06.05.Mona.R...
GrandpasFuckTeens.18.06.12.L...
PornMegaLoad.18.06.11.Skye.S...
PublicPickUps.18.06.12.Rosse...
WildOnCam.18.06.12.Tori.Avan...
PureTaboo.18.06.12.Kendra.Sp...
ClubSeventeen.18.06.12.Dunya...
CzechCasting.18.06.11.Johank...
AmateurCFNM.18.06.12.Lexi.Ry...
ImmoralLive.18.06.12.Kesha.O...
BigButtsLikeItBig.18.06.12.A...
WildOnCam.18.06.12.Dolly.Lei...
Hegre.18.06.12.Grace.Dildo.D...
BrazzersExxtra.18.06.12.Laur...

3D
Zombies.Ueberlebe.die.Untote...
Der.Dschungel.Der.Zauber.ein...
Penthouse.Presents.Sexy.Sing...
The.LEGO.Ninjago.Movie.3D.20...
Zombies.Ueberlebe.die.Untote...
Norwegen.3D.2013.GERMAN.DL.D...
Norwegen.3D.2013.GERMAN.DOKU...
Jumanji.Willkommen.im.Dschun...
Jumanji.Welcome.To.The.Jungl...
Abraham.Lincoln.Vampire.Hunt...
Norwegen.3D.2013.MULTi.COMPL...
Star.Wars.Episode.VIII.Die.l...
Star.Wars.Episode.VIII.Die.l...
Star.Wars.Episode.VIII.Die.l...
Jumanji.Welcome.To.The.Jungl...

Old_Stuff
Weissensee.S03.2015.GERMAN.C...
Weissensee.S01+S02.2010.GERM...
Die.Unglaublichen.-.The.Incr...
Der.grosse.Trick.1978.German...
Sully.2016.MULTi.COMPLETE.BL...
Tremors.3.Die.neue.Brut.2001...
Die.Indianer.von.Cleveland.2...
Dealt.2017.1080p.AMZN.WEB-DL...
Dealt.2017.720p.AMZN.WEB-DL....
Roter.Staub.aka.The.Brave.On...
Roter.Staub.aka.The.Brave.On...
Magic.in.the.Moonlight.2014....
The.LEGO.Ninjago.Movie.2017....
Zeit.der.Zaertlichkeit.1983....
Zeit.der.Zaertlichkeit.1983....

Filme
The.Royals.2015.S04.German.D...
Marvels.Runaways.S01.German....
The.Good.Fight.S02.German.DD...
The.Good.Fight.S02.German.DD...
Blindspot.S03.German.DL.DUBB...
Excision.2012.German.AC3.DL....
Stand.and.Deliver.1988.Germa...
Criminal.Squad.EXTENDED.2018...
The.Stranger.Within.-.Gefäh...
Die.Geier.warten.schon.1973....
The.Sea.of.Trees.2015.German...
Conan.2011.German.Dubbed.DTS...
Flammen.am.Horizont.aka.Wron...
Apollo.13.1995.German.DTS.DL...
Central.Intelligence.2016.UN...
Der.Herr.der.Ringe.-.Die.zwe...
Der.Babadook.2014.German.DL....
Der.Babadook.2014.German.DL....
18.Stunden.bis.zur.Ewigkeit....
18.Stunden.bis.zur.Ewigkeit....
Das.Jerico.Projekt.Im.Kopf.d...
Die.letzten.Gluehwuermchen.1...
L.A.Confidential.REMASTERED....
Der.Hobbit.-.Eine.unerwartet...

 
 
Trust.2010.German.DL.AC3.1080p.BluRay.x265-FuN
Jahr: 2010
Genre: Drama, Thriller
Sprache: Deutsch AC3 | Englisch AC3
Laufzeit: 1h 41mn
Bitrate: 1 808 Kbps
Format: MKV
Größe: 1.28 GiB
Release:

Beschreibung:

Die 14-jährige Annie lernt den 16-jährigen Charlie im Internet kennen. Nach einiger Zeit der Kommunikation über einen Online-Chat, hat sie zu ihrer Online-Bekanntschaft Vertrauen aufgebaut und die Beiden wollen sich auch real treffen und verabreden. Doch irgendwie ist Charlie nicht der, wofür er sich ausgegeben hat. Für die Familie Cameron und besonders für Annie selbst, wird die Begegnung zu einem einschneidenden Erlebnis in ihrem Leben.



Format                                   : Matroska
Format version                           : Version 4 / Version 2
File size                                : 1.28 GiB
Duration                                 : 1h 41mn
Overall bit rate                         : 1 808 Kbps
Encoded date                             : UTC 2017-12-29 08:19:08
Writing application                      : mkvmerge v19.0.0 ('Brave Captain') 64-bit
Writing library                          : libebml v1.3.5 + libmatroska v1.4.8

Video
ID                                       : 1
Format                                   : HEVC
Format/Info                              : High Efficiency Video Coding
Format profile                           : Main@L4.0
Codec ID                                 : V_MPEGH/ISO/HEVC
Duration                                 : 1h 41mn
Bit rate                                 : 1 004 Kbps
Width                                    : 1 920 pixels
Height                                   : 800 pixels
Display aspect ratio                     : 2.40:1
Frame rate mode                          : Constant
Frame rate                               : 25.000 fps
Color space                              : YUV
Chroma subsampling                       : 4:2:0
Bit depth                                : 8 bits
Bits/(Pixel*Frame)                       : 0.026
Stream size                              : 728 MiB (56%)
Writing library                          : x265 2.5:[Linux][GCC 7.1.0][64 bit] 8bit+10bit+12bit
Encoding settings                        : cpuid=1173503 / frame-threads=3 / wpp / no-pmode / no-pme / no-psnr / no-ssim / log-level=2 / input-csp=1 / input-res=1920x800 / interlace=0 / total-frames=0 / level-idc=0 / high-tier=1 / uhd-bd=0 / ref=3 / no-allow-non-conformance / no-repeat-headers / annexb / no-aud / no-hrd / info / hash=0 / no-temporal-layers / open-gop / min-keyint=25 / keyint=250 / bframes=4 / b-adapt=2 / b-pyramid / bframe-bias=0 / rc-lookahead=20 / lookahead-slices=5 / scenecut=40 / no-intra-refresh / ctu=64 / min-cu-size=8 / no-rect / no-amp / max-tu-size=32 / tu-inter-depth=1 / tu-intra-depth=1 / limit-tu=0 / rdoq-level=0 / dynamic-rd=0,00 / no-ssim-rd / signhide / no-tskip / nr-intra=0 / nr-inter=0 / no-constrained-intra / no-strong-intra-smoothing / max-merge=2 / limit-refs=3 / no-limit-modes / me=1 / subme=2 / merange=57 / temporal-mvp / weightp / no-weightb / no-analyze-src-pics / deblock=0:0 / no-sao / no-sao-non-deblock / rd=3 / no-early-skip / rskip / no-fast-intra / no-tskip-fast / no-cu-lossless / no-b-intra / rdpenalty=0 / psy-rd=2,00 / psy-rdoq=0,00 / no-rd-refine / analysis-reuse-mode=0 / no-lossless / cbqpoffs=0 / crqpoffs=0 / rc=crf / crf=23,0 / qcomp=0,60 / qpstep=4 / stats-write=0 / stats-read=0 / ipratio=1,40 / pbratio=1,30 / aq-mode=1 / aq-strength=1,00 / cutree / zone-count=0 / no-strict-cbr / qg-size=32 / no-rc-grain / qpmax=69 / qpmin=0 / no-const-vbv / sar=1 / overscan=0 / videoformat=5 / range=0 / colorprim=1 / transfer=1 / colormatrix=1 / chromaloc=0 / display-window=0 / max-cll=0,0 / min-luma=0 / max-luma=255 / log2-max-poc-lsb=8 / vui-timing-info / vui-hrd-info / slices=1 / opt-qp-pps / opt-ref-list-length-pps / no-multi-pass-opt-rps / scenecut-bias=0,05 / no-opt-cu-delta-qp / no-aq-motion / no-hdr / no-hdr-opt / no-dhdr10-opt / analysis-reuse-level=5 / scale-factor=0 / refine-intra=0 / refine-inter=0 / refine-mv=0 / no-limit-sao / ctu-info=0
Default                                  : Yes
Forced                                   : No
DURATION                                 : 01:41:20.960000000
NUMBER_OF_FRAMES                         : 152024
NUMBER_OF_BYTES                          : 782328297
_STATISTICS_WRITING_APP                  : mkvmerge v19.0.0 ('Brave Captain') 64-bit
_STATISTICS_WRITING_DATE_UTC             : 2017-12-29 08:19:08
_STATISTICS_TAGS                         : BPS DURATION NUMBER_OF_FRAMES NUMBER_OF_BYTES

Audio #1
ID                                       : 2
Format                                   : AC-3
Format/Info                              : Audio Coding 3
Mode extension                           : CM (complete main)
Format settings, Endianness              : Big
Codec ID                                 : A_AC3
Duration                                 : 1h 41mn
Bit rate mode                            : Constant
Bit rate                                 : 384 Kbps
Channel(s)                               : 6 channels
Channel positions                        : Front: L C R, Side: L R, LFE
Sampling rate                            : 48.0 KHz
Bit depth                                : 16 bits
Compression mode                         : Lossy
Delay relative to video                  : -5ms
Stream size                              : 278 MiB (21%)
Title                                    : Surround
Language                                 : German
Default                                  : Yes
Forced                                   : Yes
DURATION                                 : 01:41:20.960000000
NUMBER_OF_FRAMES                         : 190030
NUMBER_OF_BYTES                          : 291886080
_STATISTICS_WRITING_APP                  : mkvmerge v19.0.0 ('Brave Captain') 64-bit
_STATISTICS_WRITING_DATE_UTC             : 2017-12-29 08:19:08
_STATISTICS_TAGS                         : BPS DURATION NUMBER_OF_FRAMES NUMBER_OF_BYTES

Audio #2
ID                                       : 3
Format                                   : AC-3
Format/Info                              : Audio Coding 3
Mode extension                           : CM (complete main)
Format settings, Endianness              : Big
Codec ID                                 : A_AC3
Duration                                 : 1h 41mn
Bit rate mode                            : Constant
Bit rate                                 : 384 Kbps
Channel(s)                               : 6 channels
Channel positions                        : Front: L C R, Side: L R, LFE
Sampling rate                            : 48.0 KHz
Bit depth                                : 16 bits
Compression mode                         : Lossy
Delay relative to video                  : -5ms
Stream size                              : 278 MiB (21%)
Title                                    : Surround
Language                                 : English
Default                                  : No
Forced                                   : No
DURATION                                 : 01:41:20.960000000
NUMBER_OF_FRAMES                         : 190030
NUMBER_OF_BYTES                          : 291886080
_STATISTICS_WRITING_APP                  : mkvmerge v19.0.0 ('Brave Captain') 64-bit
_STATISTICS_WRITING_DATE_UTC             : 2017-12-29 08:19:08
_STATISTICS_TAGS                         : BPS DURATION NUMBER_OF_FRAMES NUMBER_OF_BYTES

Text #1
ID                                       : 4
Format                                   : PGS
Muxing mode                              : zlib
Codec ID                                 : S_HDMV/PGS
Codec ID/Info                            : The same subtitle format used on BDs/HD-DVDs
Title                                    : forced
Language                                 : German
Default                                  : Yes
Forced                                   : Yes
DURATION                                 : 00:00:07.840000000
NUMBER_OF_FRAMES                         : 4
NUMBER_OF_BYTES                          : 50969
_STATISTICS_WRITING_APP                  : mkvmerge v19.0.0 ('Brave Captain') 64-bit
_STATISTICS_WRITING_DATE_UTC             : 2017-12-29 08:19:08
_STATISTICS_TAGS                         : BPS DURATION NUMBER_OF_FRAMES NUMBER_OF_BYTES

Text #2
ID                                       : 5
Format                                   : PGS
Muxing mode                              : zlib
Codec ID                                 : S_HDMV/PGS
Codec ID/Info                            : The same subtitle format used on BDs/HD-DVDs
Title                                    : full
Language                                 : German
Default                                  : No
Forced                                   : No
DURATION                                 : 01:33:18.160000000
NUMBER_OF_FRAMES                         : 2686
NUMBER_OF_BYTES                          : 22649396
_STATISTICS_WRITING_APP                  : mkvmerge v19.0.0 ('Brave Captain') 64-bit
_STATISTICS_WRITING_DATE_UTC             : 2017-12-29 08:19:08
_STATISTICS_TAGS                         : BPS DURATION NUMBER_OF_FRAMES NUMBER_OF_BYTES


Download:
Share Online Share OnlineShare OnlineShare Online
 

Kommentare