DNS SERVER AENDERNum der staatlichen Zensur zu umgehen. Sollten wir von eurem Provider geseprrt werden, nutzt den TOR BROWSER oder ändert euren DNS SERVER.

Filmwünsche können bei uns im Forum abgegeben werden

Wir Speichern Nicht




 
 
 
Top Releases
Prison.Break.Ein.letzter.Sch...
Prison.Break.Ein.letzter.Sch...
Die.Verlegerin.2017.MULTI.CO...
Cargo.2017.German.AC3D.DL.10...
The.Secret.Scripture.2016.Ge...
Honig.im.Kopf.2014.German.AC...
The.Ballad.of.Lefty.Brown.20...
Loving.Vincent.2017.MULTi.CO...
The.Secret.Scripture.2016.Ge...
The.Ballad.of.Lefty.Brown.20...

Cinedubs
Deadpool.2.2018.GERMAN.720p....
Das.Zeitraetsel.2018.German....
Das.Zeitraetsel.2018.German....
Death.Wish.German.DL.AC3.Dub...
Death.Wish.German.DL.AC3.Dub...
Death.Wish.German.DL.AC3.Dub...
Death.Wish.German.DL.AC3.Dub...
Der.Buchladen.der.Florence.G...
Der.Buchladen.der.Florence.G...
Pacific.Rim.2.Uprising.Germa...

Neuerscheinungen 2017-18
Tango.One.2018.DUAL.COMPLETE...
Tango.One.2018.German.720p.B...
Tango.One.2018.German.DL.108...
Ibiza.2018.German.Dubbed.DL....
Topkapi.1964.MULTi.COMPLETE....
Der.grosse.Eisenbahnraub.The...
RED.2.Noch.Aelter.Haerter.Be...
RED.2010.MULTi.COMPLETE.UHD....
Massai.Apache.1954.MULTi.COM...
Tad.Jones.und.das.Geheimnis....

XXX
BrazzersExxtra.18.05.14.Char...
ATKGirlfriends.18.05.15.Hime...
BritneyAmber.18.05.18.Hotter...
BadMilfs.18.05.18.Sofie.Mari...
BoundGangBangs.18.05.16.Isab...
BurningAngel.18.05.15.Joanna...
BurningAngel.18.05.18.Joanna...
Blacked.18.05.15.Gia.Paige.X...
BigTitsRoundAsses.18.05.17.J...
BlacksOnBlondes.18.05.15.Man...
BrazzersExxtra.18.05.18.Brit...
CherryPimps.18.05.14.Ella.Hu...
Bang.Confessions.18.05.18.Ro...
Bang.Europe.70.XXX.720p.WEBR...
CastingCouch-X.18.05.18.Mira...
Bang.Glamkore.18.05.17.Saman...
BangBros18.18.05.15.Jane.Wil...
BitchesAbroad.18.05.18.Chloe...
Bang.RealTeens.18.05.14.Jess...
CarneDelMercado.18.05.15.Ane...

3D
Zombies.Ueberlebe.die.Untote...
Norwegen.3D.2013.GERMAN.DL.D...
Norwegen.3D.2013.GERMAN.DOKU...
Jumanji.Willkommen.im.Dschun...
Jumanji.Welcome.To.The.Jungl...
Abraham.Lincoln.Vampire.Hunt...
Norwegen.3D.2013.MULTi.COMPL...
Star.Wars.Episode.VIII.Die.l...
Star.Wars.Episode.VIII.Die.l...
Star.Wars.Episode.VIII.Die.l...
Jumanji.Welcome.To.The.Jungl...
Star.Wars.The.Last.Jedi.2017...
Final.Storm.Der.Untergang.de...
Final.Storm.Der.Untergang.de...
Jumanji.Willkommen.im.Dschun...

Old_Stuff
Tremors.3.Die.neue.Brut.2001...
Die.Indianer.von.Cleveland.2...
Dealt.2017.1080p.AMZN.WEB-DL...
Dealt.2017.720p.AMZN.WEB-DL....
Roter.Staub.aka.The.Brave.On...
Roter.Staub.aka.The.Brave.On...
Magic.in.the.Moonlight.2014....
The.LEGO.Ninjago.Movie.2017....
Zeit.der.Zaertlichkeit.1983....
Zeit.der.Zaertlichkeit.1983....
Regular.Show.S01.1080p.BluRa...
Ostfriesisch.fuer.Anfaenger....
Planet.der.Affen.Prevolution...
Final.Fantasy.VII.Advent.Chi...
City.Slickers.2.1994.German....

Filme
R.E.D.Aelter.haerter.besser....
R.E.D.2.Noch.aelter.Haerter....
Fatso.2008.German.DL.1080p.B...
Bullyparade.Der.Film.2017.Ge...
Ancient.Aliens.-.Unerklaerli...
Ancient.Aliens.-.Unerklaerli...
Korczak.1990.German.1080p.Bl...
Das.Messer.im.Wasser.1962.Ge...
Rebecka.Martinsson.S01D01-2....
Kap.der.Angst.1991.German.DT...
R.E.D.2.Noch.aelter.Haerter....
R.E.D.Aelter.haerter.besser....
Orphan.Das.Waisenkind.2009.G...
The.Sweet.Hereafter.Das.sues...
The.Tree.of.Life.2011.German...
Die.Verlegerin.2017.German.D...
Die.Verlegerin.2017.German.D...
Vielleicht.lieber.morgen.201...
Star.Wars.The.Clone.Wars.200...
Honey.3.German.2016.DTS.1080...
Shes.the.Man.Voll.mein.Typ.2...
Shes.the.Man.Voll.mein.Typ.2...
North.-.Eltern.Nein.Danke.19...
Space.Truckers.1996.1080p.GB...

 
 
Zoo.S03.COMPLETE.GERMAN.DUBBED.DL.1080p.WebHD.x264-TVP
Jahr: 2017
Genre: Drama | Sci-Fi | Thriller
Sprache: Deutsch AC3 | Englisch AC3
Laufzeit: 40min je Folge
Bitrate: 7600 Kbps
Format: MKV
Größe: 2,4 GB je Folge
Release:

Beschreibung:

Jahrtausende lang mussten sich die Tiere dem Willen des Menschen beugen. Schlägt die Natur jetzt zurück? Für den jungen Biologen Jackson Oz (James Wolk) deutet alles darauf hin. Beunruhigt verfolgt er, wie rund um den Globus Tiere scheinbar gezielt Menschen attackieren – immer öfter mit tödlichen Folgen. Verzweifelt versuchen Jackson und seine wenigen Verbündeten, das Rätsel um das befremdliche Verhalten der Vierbeiner zu lösen und ihren gefährlichen Rachefeldzug zu stoppen.

 

enthaltene Folgen (Staffel komplett):

Zoo.S03E01.Die.Rueckkehr.GERMAN.DUBBED.DL.1080p.WebHD.x264-TVP

Zoo.S03E02.Durchbruch.GERMAN.DUBBED.DL.1080p.WebHD.x264-TVP 

Zoo.S03E03.Gestaendnisse.GERMAN.DUBBED.DL.1080p.WebHD.x264-TVP

Zoo.S03E04.Auf.der.anderen.Seite.GERMAN.DUBBED.DL.1080p.WebHD.x264-TVP 

Zoo.S03E05.Loslassen.GERMAN.DUBBED.DL.1080p.WebHD.x264-TVP

Zoo.S03E06.One.Night.Stand.GERMAN.DUBBED.DL.1080p.WebHD.x264-TVP 

Zoo.S03E07.Wer.ist.Mr.Duncan.GERMAN.DUBBED.DL.1080p.WebHD.x264-TVP

Zoo.S03E08.Stakes.on.a.Plane.GERMAN.DUBBED.DL.1080p.WebHD.x264-TVP 

Zoo.S03E09.The.Black.Forest.GERMAN.DUBBED.DL.1080p.WebHD.x264-TVP

Zoo.S03E10.Once.Upon.a.Time.in.the.Nest.GERMAN.DUBBED.DL.1080p.WebHD.x264-TVP 

Zoo.S03E11.Cradles.and.Graves.GERMAN.DUBBED.DL.1080p.WebHD.x264-TVP

Zoo.S03E12.Im.Westen.viel.neues.GERMAN.DUBBED.DL.1080p.WebHD.x264-TVP NEU

Zoo.S03E13.Der.Schutzwall.GERMAN.DUBBED.DL.1080p.WebHD.x264-TVP NEU



General
Complete name                            : Zoo.S03E01.Die.Rueckkehr.GERMAN.DUBBED.DL.1080p.WebHD.x264-TVP\tvp-zoo-s03e01-1080p.mkv
Format                                   : Matroska
Format version                           : Version 2
File size                                : 2.40 GiB
Duration                                 : 40mn 39s
Overall bit rate mode                    : Variable
Overall bit rate                         : 8 441 Kbps
Movie name                               : Zoo.S03E01.Die.Rueckkehr.GERMAN.DUBBED.DL.1080p.WebHD.x264-TVP
Encoded date                             : UTC 2018-01-10 20:24:27
Writing application                      : mkvmerge v5.6.0 ('Kenya Kane') built on May 28 2012 06:47:39
Writing library                          : libebml v1.2.2 + libmatroska v1.3.0

Video
ID                                       : 1
Format                                   : AVC
Format/Info                              : Advanced Video Codec
Format profile                           : High@L4.0
Format settings, CABAC                   : Yes
Format settings, ReFrames                : 4 frames
Codec ID                                 : V_MPEG4/ISO/AVC
Duration                                 : 40mn 39s
Bit rate mode                            : Variable
Bit rate                                 : 7 697 Kbps
Maximum bit rate                         : 15.0 Mbps
Width                                    : 1 920 pixels
Height                                   : 1 080 pixels
Display aspect ratio                     : 16:9
Frame rate mode                          : Constant
Frame rate                               : 25.000 fps
Original frame rate                      : 23.976 fps
Color space                              : YUV
Chroma subsampling                       : 4:2:0
Bit depth                                : 8 bits
Scan type                                : Progressive
Bits/(Pixel*Frame)                       : 0.148
Stream size                              : 2.19 GiB (91%)
Title                                    : tvp-zoo-s03e01-1080p
Language                                 : German
Default                                  : Yes
Forced                                   : Yes
Color primaries                          : BT.709
Transfer characteristics                 : BT.709
Matrix coefficients                      : BT.709

Audio #1
ID                                       : 2
Format                                   : AC-3
Format/Info                              : Audio Coding 3
Mode extension                           : CM (complete main)
Format settings, Endianness              : Big
Codec ID                                 : A_AC3
Duration                                 : 40mn 39s
Bit rate mode                            : Constant
Bit rate                                 : 192 Kbps
Channel(s)                               : 2 channels
Channel positions                        : Front: L R
Sampling rate                            : 48.0 KHz
Bit depth                                : 16 bits
Compression mode                         : Lossy
Stream size                              : 55.8 MiB (2%)
Language                                 : German
Default                                  : Yes
Forced                                   : Yes

Audio #2
ID                                       : 3
Format                                   : AC-3
Format/Info                              : Audio Coding 3
Mode extension                           : CM (complete main)
Format settings, Endianness              : Big
Codec ID                                 : A_AC3
Duration                                 : 40mn 39s
Bit rate mode                            : Constant
Bit rate                                 : 384 Kbps
Channel(s)                               : 6 channels
Channel positions                        : Front: L C R, Side: L R, LFE
Sampling rate                            : 48.0 KHz
Bit depth                                : 16 bits
Compression mode                         : Lossy
Stream size                              : 112 MiB (5%)
Language                                 : English
Default                                  : No
Forced                                   : No



Download:
Share-Online.biz Share-Online.bizShare-Online.bizShare-Online.biz | Rapidgator.net Rapidgator.netRapidgator.netRapidgator.net
 

Kommentare