Filmwünsche können bei uns im Forum abgegeben werden

Wir Speichern Nicht




 
 
 
Top Releases
Zwischen.zwei.Leben.The.Moun...
Koerper.und.Seele.2017.Germa...
Koerper.und.Seele.2017.Germa...
Sing.2016.German.DL.2160p.UH...
Der.grosse.Gatsby.The.Great....
Pacific.Rim.2013.COMPLETE.UH...
The.Girl.on.the.Train.2016.D...
Sweet.Virginia.2017.MULTI.CO...
Sweet.Virginia.2017.German.D...
American.Made.2017.MULTi.COM...

Cinedubs
Blade.Runner.2049.3D.HSBS.Ge...
Blade.Runner.2049.GERMAN.DL....
Blade.Runner.2049.3D.HOU.Ger...
Thor.Tag.der.Entscheidung.20...
Thor.Tag.der.Entscheidung.20...
Blade.Runner.2049.2017.Germa...
Jigsaw.2017.German.AC3D.DL.7...
Jigsaw.2017.German.AC3D.DL.1...
The.LEGO.Ninjago.Movie.Germa...
The.LEGO.Ninjago.Movie.Germa...

Neuerscheinungen 2017-18
Hereinspaziert.2017.DUAL.COM...
Hampstead.Park.Aussicht.auf....
Hampstead.Park.Aussicht.auf....
Hereinspaziert.2017.German.7...
Amnesiac.2015.German.720p.Bl...
Blade.Runner.2049.German.DL....
Blade.Runner.2049.GERMAN.DL....
Blade.Runner.2049.GERMAN.DL....
Amnesiac.2015.German.DL.1080...
Pfad.der.Rache.2017.German.D...

XXX
MommysGirl.18.01.16.Bridgett...
Lesbea.18.01.14.Anie.Darling...
LukeHardyXXX.17.12.27.Stella...
JapanHDV.18.01.13.Noriko.Aot...
MySistersHotFriend.18.01.16....
LoveHerFeet.17.10.06.Alexis....
LethalHardcore.My.Stepsister...
MariskaX.18.01.14.Angelique....
LoveHerFeet.17.12.22.Brenna....
LoveHerFeet.17.09.29.Nina.No...
KinkyFamily.18.01.13.Kenzie....
LoveHerFeet.17.09.08.Sidney....
LetsTryAnal.18.01.15.Evelin....
MyFriendsHotGirl.18.01.13.Kl...
LoveHerFeet.17.09.22.Chloe.S...
Joymii.18.01.13.Tina.Kay.Fir...
MariskaX.18.01.15.Alessa.Sav...
MonsterCurves.18.01.16.Aniss...
Lustery.E85.Mary.And.Ann.Lat...
JeshByJesh.18.01.13.Victoria...

3D
Geostorm.3D.2017.HSBS.German...
Geostorm.3D.2017.HOU.German....
Geostorm.3D.2017.multi.compl...
Cars.3.3D.2017.multi.complet...
Cars.3.Evolution.3D.HSBS.201...
Cars.3.Evolution.3D.HOU.2017...
Ares.2016.3D.HOU.German.1080...
Guardians.Of.The.Galaxy.Vol....
Ares.3D.2016.German.720p.Blu...
Ares.3D.2016.German.1080p.Bl...
El.Americano.Kleiner.Superhe...
Best.of.3D.vol.01.-.03.GERMA...
Pete.Smalls.is.Dead.3D.2010....
Baymax.Riesiges.Robowabohu.2...
Bigfoot.Junior.3D.2017.GERMA...

Old_Stuff
American.Sniper.2014.MULTi.C...
Hana-bi.Feuerblume.1997.Germ...
Memphis.Belle.1990.German.DL...
Im.Schatten.des.Mondes.Germa...
Tomb.Raider.2001.DUAL.COMPLE...
Tomb.Raider.Die.Wiege.des.Le...
Party.Animals.3.German.AC3.7...
The.Rocky.Horror.Picture.Sho...
Die.Fliege.1986.German.DTS.1...
Mimic.2.2001.German.DD5.1D.D...
The.Tournament.UNCUT.2009.Ge...
Dr.House.S08.German.720p.Blu...
Dr.House.S07.German.720p.Blu...
Dr.House.S06.German.720p.Blu...
Dr.House.S05.German.720p.Blu...

Filme
Phantasm.IV.GERMAN.1998.DL.1...
Phantasm.IV.GERMAN.1998.DL.7...
Lebanon.Toedliche.Mission.20...
Spawn.1997.German.DL.1080p.B...
Die.Kammer.-.The.Chamber.199...
I.Am.David.2003.German.AC3D....
Grifters.1990.German.DL.AC3D...
Daenische.Delikatessen.2003....
Jakob.der.Luegner.aka.Jakob....
Perfect.Blue.1997.German.AC3...
Verfluchtes.Amsterdam.Uncut....
Verfluchtes.Amsterdam.Uncut....
Verfluchtes.Amsterdam.Uncut....
Der.versteinerte.Wald.-.The....
The.Astronauts.Wife.1999.Ger...
The.Big.Bang.Theory.S11.Germ...
The.Big.Bang.Theory.S11.Germ...
Star.Trek.Discovery.S01.Germ...
Supernatural.S12.GERMAN.DUBB...
Supernatural.S12.GERMAN.DUBB...
The.Expendables.THEATRICAL.2...
The.Expendables.DC.2010.Germ...
Born.to.Be.Wild.1995.German....
Shriek.Schrei.wenn.du.weisst...

 
 
The.LEGO.Ninjago.Movie.German.DL.AC3.Dubbed.720p.BluRay.x264-PsO
Jahr: 2017
Genre: Animation, Action
Sprache: Deutsch AC3 | Englisch DTS
Laufzeit: 1h 41mn
Bitrate: 6 354 Kbps
Format: MKV
Größe: 4.50 GiB
Release:

Beschreibung:
Die sechs jungen Ninjas Lloyd (Stimme im Original: Dave Franco), Kai (Michael Peña), Nya (Abbie Jacobson), Jay (Kumail Nanjiani), Zane (Zach Woods) und Cole (Fred Armisen) beschützen ihre Heimatstadt Ninjago City heimlich vor Feinden und Monstern. Dazu nutzen sie ihre besonderen Fähigkeiten und greifen auf ihre Flotte an Mechs zurück. Trainiert werden sie von ihrem Lehrmeister Wu (Jackie Chan), der Lloyds Onkel ist und noch dazu ein ziemlicher Sprücheklopfer. Doch die Teenager bleiben bei ihren Heldentaten unerkannt und gelten tagsüber an der Highschool als Nerds und Geeks, die von vielen Mitschülern ignoriert werden. Noch dazu müssen sie sich nun mit dem bösen Warlord Garmadon (Justin Theroux) herumschlagen – Lloyds Vater! Und um in der großen Entscheidungsschlacht bestehen zu können, müssen die sechs Ninjas erst noch lernen, als Team zu agieren...


Complete name                            : pso-lego.ninjago.movie_720p.mkv
Format                                   : Matroska
Format version                           : Version 4 / Version 2
File size                                : 4.50 GiB
Duration                                 : 1h 41mn
Overall bit rate                         : 6 354 Kbps
Encoded date                             : UTC 2018-01-10 23:39:12
Writing application                      : mkvmerge v8.3.0 ('Over the Horizon') 64bit
Writing library                          : libebml v1.3.1 + libmatroska v1.4.2
DURATION                                 : 01:41:26.550000000
NUMBER_OF_FRAMES                         : 570614
NUMBER_OF_BYTES                          : 1148075368
_STATISTICS_WRITING_APP                  : mkvmerge v8.3.0 ('Over the Horizon') 64bit
_STATISTICS_WRITING_DATE_UTC             : 2018-01-10 23:39:12
_STATISTICS_TAGS                         : BPS DURATION NUMBER_OF_FRAMES NUMBER_OF_BYTES

Video
ID                                       : 3
Format                                   : AVC
Format/Info                              : Advanced Video Codec
Format profile                           : High@L4.1
Format settings, CABAC                   : Yes
Format settings, ReFrames                : 5 frames
Codec ID                                 : V_MPEG4/ISO/AVC
Duration                                 : 1h 41mn
Bit rate                                 : 4 651 Kbps
Width                                    : 1 280 pixels
Height                                   : 536 pixels
Display aspect ratio                     : 2.40:1
Frame rate mode                          : Constant
Frame rate                               : 23.976 fps
Color space                              : YUV
Chroma subsampling                       : 4:2:0
Bit depth                                : 8 bits
Scan type                                : Progressive
Bits/(Pixel*Frame)                       : 0.283
Stream size                              : 3.21 GiB (71%)
Writing library                          : x264 core 152 r2851 ba24899
Encoding settings                        : cabac=1 / ref=5 / deblock=1:0:0 / analyse=0x3:0x113 / me=umh / subme=8 / psy=1 / psy_rd=1.00:0.00 / mixed_ref=1 / me_range=16 / chroma_me=1 / trellis=1 / 8x8dct=1 / cqm=0 / deadzone=21,11 / fast_pskip=1 / chroma_qp_offset=-2 / threads=17 / lookahead_threads=2 / sliced_threads=0 / nr=0 / decimate=1 / interlaced=0 / bluray_compat=0 / constrained_intra=0 / bframes=3 / b_pyramid=2 / b_adapt=1 / b_bias=0 / direct=3 / weightb=1 / open_gop=0 / weightp=2 / keyint=240 / keyint_min=24 / scenecut=40 / intra_refresh=0 / rc_lookahead=50 / rc=2pass / mbtree=1 / bitrate=4651 / ratetol=1.0 / qcomp=0.60 / qpmin=0 / qpmax=69 / qpstep=4 / cplxblur=20.0 / qblur=0.5 / ip_ratio=1.40 / aq=1:1.00
Default                                  : Yes
Forced                                   : No

Audio #1
ID                                       : 1
Format                                   : AC-3
Format/Info                              : Audio Coding 3
Mode extension                           : CM (complete main)
Format settings, Endianness              : Big
Codec ID                                 : A_AC3
Duration                                 : 1h 41mn
Bit rate mode                            : Constant
Bit rate                                 : 192 Kbps
Channel(s)                               : 2 channels
Channel positions                        : Front: L R
Sampling rate                            : 48.0 KHz
Bit depth                                : 16 bits
Compression mode                         : Lossy
Delay relative to video                  : 1s 0ms
Stream size                              : 139 MiB (3%)
Default                                  : Yes
Forced                                   : Yes
DURATION                                 : 01:41:26.623000000
NUMBER_OF_FRAMES                         : 145933
NUMBER_OF_BYTES                          : 3538509865
_STATISTICS_WRITING_APP                  : mkvmerge v8.3.0 ('Over the Horizon') 64bit
_STATISTICS_WRITING_DATE_UTC             : 2018-01-10 23:39:12
_STATISTICS_TAGS                         : BPS DURATION NUMBER_OF_FRAMES NUMBER_OF_BYTES

Audio #2
ID                                       : 4
Format                                   : DTS
Format/Info                              : Digital Theater Systems
Mode                                     : 16
Format settings, Endianness              : Big
Codec ID                                 : A_DTS
Duration                                 : 1h 41mn
Bit rate mode                            : Constant
Bit rate                                 : 1 509 Kbps
Channel(s)                               : 6 channels
Channel positions                        : Front: L C R, Side: L R, LFE
Sampling rate                            : 48.0 KHz
Bit depth                                : 24 bits
Compression mode                         : Lossy
Stream size                              : 1.07 GiB (24%)
Language                                 : English
Default                                  : No
Forced                                   : No

Text
ID                                       : 2
Format                                   : UTF-8
Codec ID                                 : S_TEXT/UTF8
Codec ID/Info                            : UTF-8 Plain Text
Default                                  : Yes
Forced                                   : No


Download:
Share Online Share OnlineShare OnlineShare Online
 

Kommentare