DNS SERVER AENDERNum der staatlichen Zensur zu umgehen. Sollten wir von eurem Provider geseprrt werden, nutzt den TOR BROWSER oder ändert euren DNS SERVER.

Filmwünsche können bei uns im Forum abgegeben werden

Wir Speichern Nicht




 
 
 
Top Releases
Jurassic.World.2.Das.gefalle...
Jurassic.World.2.Das.gefalle...
Racer.and.the.Jailbird.2017....
Racer.and.the.Jailbird.2017....
Racer.and.the.Jailbird.2017....
The.Girl.on.Train.2016.PROPE...
Solo.A.Star.Wars.Story.2018....
Solo.A.Star.Wars.Story.2018....
Solo.A.Star.Wars.Story.2018....
Outrage.Coda.GERMAN.2017.DL....

Cinedubs
Sicario.2.2018.German.AC3MD....
Sicario.2.2018.German.AC3MD....
No.Way.Out.Gegen.die.Flammen...
No.Way.Out.Gegen.die.Flammen...
The.First.Purge.German.DL.AC...
The.First.Purge.German.DL.AC...
Hotel.Transsilvanien.3.Ein.M...
Hotel.Transsilvanien.3.Ein.M...
Meg.German.DL.AC3.Dubbed.720...
Meg.German.DL.AC3.Dubbed.108...

Neuerscheinungen 2017-18
Gosford.Park.2001.MULTi.COMP...
Steig.Nicht.Aus.2018.German....
Steig.Nicht.Aus.2018.German....
Triassic.World.2018.German.7...
Triassic.World.2018.German.D...
Steig.Nicht.Aus.2018.GERMAN....
Triassic.World.2018.MULTi.CO...
Anne.Clark.I.Will.Walk.Out.I...
Decommissioned.Anschlag.auf....
Decommissioned.Anschlag.auf....

XXX
JapanHDV.18.09.10.Kiyoha.Him...
InterracialPass.18.09.07.Mel...
InnocentHigh.18.09.10.Karla....
Lustery.E134.James.And.Val.T...
LittleCapriceDreams.18.09.07...
JulesJordan.18.09.07.Julie.K...
Latin.Amateurs.Watch.Me.Bang...
I.Fucked.Your.Step.Father.9....
KimberLeeLive.18.09.03.Kimbe...
LoveHerFeet.18.09.07.Emily.W...
IKnowThatGirl.18.09.09.Eliza...
Lustery.E135.Asteria.And.Uly...
I.Fucked.Your.Step.Father.9....
KarupsOW.18.09.07.Victoria.P...
KimberLeeLive.18.08.24.Crave...
KarupsHA.18.09.10.Lenna.Lux....
KimberLeeLive.18.09.07.Ashly...
Hustler.18.09.09.Vanessa.Sky...
LezCuties.18.09.07.Zazie.Sky...
JulesJordan.18.09.10.Angela....

3D
Solo.A.Star.Wars.Story.3D.20...
Solo.A.Star.Wars.Story.3D.20...
Die.Biene.Maja.2.Die.Honigsp...
Avengers.Infinity.War.3D.201...
Avengers.Infinity.War.3D.201...
Rampage.Big.Meets.Bigger.3D....
Rampage.Big.Meets.Bigger.3D....
Rampage.Big.Meets.Bigger.3D....
Winter.Games.3D.2013.DUAL.CO...
Tomb.Raider.3D.2018.German.7...
Rampage.Big.Meets.Bigger.3D....
Rampage.Big.Meets.Bigger.3D....
Tomb.Raider.3D.2018.MULTi.CO...
Pacific.Rim.Uprising.3D.2018...
Ready.Player.One.3D.2018.Ger...

Old_Stuff
How.I.Met.Your.Mother.S02.Ge...
Akte.X.S01.German.DTS.DL.108...
Den.Himmel.gibts.echt.DL.108...
Vikings.S02.German.DL.1080p....
Be.Kind.Rewind.Abgedreht.200...
Be.Kind.Rewind.Abgedreht.200...
Dracula.The.Dark.Lord.2012.G...
21.2008.German.DL.1080p.BluR...
Achtung.fertig.WK.Swissgerma...
The.Ouija.Exorcism.2015.MULT...
Meine.liebe.Rabenmutter.germ...
Da.Vincis.Demons.S01.Complet...
Eragon.Das.Vermaechtnis.der....
Adele.und.das.Geheimnis.des....
Die.fabelhafte.Welt.der.Amel...

Filme
Disneys.Ein.Frechdachs.im.Ma...
Cardinal.S01.COMPLETE.German...
Wie.man.Erfolg.hat.ohne.sich...
Cardinal.S01.COMPLETE.German...
Cradle.of.Fear.2001.German.D...
Gewalt.und.Leidenschaft.1974...
Der.Champ.1979.German.AC3D.D...
And.the.Oscar.Goes.To.2014.G...
Meisterschaft.im.Seitensprun...
Maniac.S01.COMPLETE.GERMAN.D...
Maniac.S01.COMPLETE.GERMAN.D...
The.Good.Cop.S01.GERMAN.DL.1...
The.Good.Cop.S01.GERMAN.DL.7...
Fühlen.Sie.sich.manchmal.au...
The.Last.Man.On.Earth.S04.Ge...
The.Last.Man.On.Earth.S04.Ge...
eXistenZ.GERMAN.1999.DL.1080...
eXistenZ.GERMAN.1999.DL.720p...
Snowfall.S02.GERMAN.DUBBED.7...
Ballers.S04.GERMAN.DUBBED.DL...
Ballers.S04.GERMAN.DUBBED.DL...
The.Handmaids.Tale.S02.Germa...
The.Handmaids.Tale.S02.Germa...
Mr.Mercedes.S02.German.DD+51...

 
 
Assassins.Die.Killer.1995.GERMAN.DL.1080p.BLURAY.x264-HDViSiON
Jahr: 1995
Genre: Action, Thriller
Sprache: Deutsch AC3 | Englisch DTS
Laufzeit: 2h 12mn
Bitrate: 11.6 Mbps
Format: MKV
Größe: 10.8 GiB
Release:

Beschreibung:

Die Nummer Eins ist das ständige Morden leid – Berufskiller Robert Rath will seinen lukrativen, aber nervenaufreibenden Job an den Nagel hängen. Doch so einfach ist das nicht: Der junge, aufstrebende Nachwuchskollege Miguel Bain, der Rath grenzenlos bewundert, möchte dessen Position einnehmen. Um dies zu erreichen, muß er ihn töten. Inzwischen hat Rath die kriminelle Computerspezialistin Electra getroffen, die ihm die Chance zum Aussteigen anbietet. In Südamerika kommt es schließlich zum Showdown der Superkiller.



Complete name                            : hdv-assass-1080p.mkv
Format                                   : Matroska
Format version                           : Version 2
File size                                : 10.8 GiB
Duration                                 : 2h 12mn
Overall bit rate                         : 11.6 Mbps
Movie name                               : Assassins - Die Killer
Encoded date                             : UTC 2011-08-20 22:06:26
Writing application                      : mkvmerge v4.5.0 ('Speed of Light') gebaut am Feb  1 2011 02:10:32
Writing library                          : libebml v1.2.0 + libmatroska v1.1.0

Video
ID                                       : 1
Format                                   : AVC
Format/Info                              : Advanced Video Codec
Format profile                           : High@L4.1
Format settings, CABAC                   : Yes
Format settings, ReFrames                : 4 frames
Muxing mode                              : Header stripping
Codec ID                                 : V_MPEG4/ISO/AVC
Duration                                 : 2h 12mn
Bit rate                                 : 9 240 Kbps
Width                                    : 1 920 pixels
Height                                   : 1 080 pixels
Display aspect ratio                     : 16:9
Frame rate mode                          : Constant
Frame rate                               : 23.976 fps
Color space                              : YUV
Chroma subsampling                       : 4:2:0
Bit depth                                : 8 bits
Scan type                                : Progressive
Bits/(Pixel*Frame)                       : 0.186
Stream size                              : 8.58 GiB (80%)
Writing library                          : x264 core 116 r2057 0ba8a9c
Encoding settings                        : cabac=1 / ref=4 / deblock=1:0:0 / analyse=0x3:0x133 / me=umh / subme=7 / psy=1 / psy_rd=1.00:0.00 / mixed_ref=1 / me_range=16 / chroma_me=1 / trellis=1 / 8x8dct=1 / cqm=0 / deadzone=21,11 / fast_pskip=0 / chroma_qp_offset=-2 / threads=9 / sliced_threads=0 / nr=0 / decimate=1 / interlaced=0 / bluray_compat=0 / constrained_intra=0 / bframes=3 / b_pyramid=2 / b_adapt=1 / b_bias=0 / direct=3 / weightb=1 / open_gop=0 / weightp=2 / keyint=250 / keyint_min=23 / scenecut=40 / intra_refresh=0 / rc_lookahead=40 / rc=crf / mbtree=1 / crf=20.0 / qcomp=0.60 / qpmin=0 / qpmax=69 / qpstep=4 / ip_ratio=1.40 / aq=1:1.00
Language                                 : German
Default                                  : Yes
Forced                                   : No

Audio #1
ID                                       : 2
Format                                   : AC-3
Format/Info                              : Audio Coding 3
Mode extension                           : CM (complete main)
Format settings, Endianness              : Big
Muxing mode                              : Header stripping
Codec ID                                 : A_AC3
Duration                                 : 2h 12mn
Bit rate mode                            : Constant
Bit rate                                 : 640 Kbps
Channel(s)                               : 6 channels
Channel positions                        : Front: L C R, Side: L R, LFE
Sampling rate                            : 48.0 KHz
Bit depth                                : 16 bits
Compression mode                         : Lossy
Stream size                              : 608 MiB (6%)
Language                                 : German
Default                                  : Yes
Forced                                   : No

Audio #2
ID                                       : 3
Format                                   : DTS
Format/Info                              : Digital Theater Systems
Mode                                     : 16
Format settings, Endianness              : Big
Muxing mode                              : Header stripping
Codec ID                                 : A_DTS
Duration                                 : 2h 12mn
Bit rate mode                            : Constant
Bit rate                                 : 1 509 Kbps
Channel(s)                               : 6 channels
Channel positions                        : Front: L C R, Side: L R, LFE
Sampling rate                            : 48.0 KHz
Bit depth                                : 24 bits
Compression mode                         : Lossy
Stream size                              : 1.40 GiB (13%)
Language                                 : English
Default                                  : No
Forced                                   : No


Download:
Share Online Share OnlineShare OnlineShare Online
 

Kommentare