Filmwünsche können bei uns im Forum abgegeben werden

Wir Speichern Nicht




 
 
 
Top Releases
Loving.Vincent.2017.COMPLETE...
Mother.2017.MULTI.COMPLETE.B...
Mother.2017.German.DL.2160p....
I.Remember.You.2017.German.D...
I.Remember.You.2017.MULTi.CO...
I.Remember.You.2017.German.1...
I.Remember.You.2017.German.7...
Better.Watch.Out.2016.GERMAN...
Better.Watch.Out.2016.MULTi....
Men.in.Black.3.2012.COMPLETE...

Cinedubs
Blade.Runner.2049.2017.Germa...
Jigsaw.2017.German.AC3D.DL.7...
Jigsaw.2017.German.AC3D.DL.1...
Geostorm.2017.German.AC3MD.D...
Geostorm.2017.German.AC3MD.D...
The.LEGO.Ninjago.Movie.Germa...
The.LEGO.Ninjago.Movie.Germa...
Jigsaw.German.MD.DL.1080p.WE...
Jigsaw.German.MD.DL.720p.WEB...
Star.Wars.Episode.VIII.Die.l...

Neuerscheinungen 2017-18
Das.Morgan.Projekt.4K.2016.m...
5.Seasons.UNCUT.GERMAN.2015....
5.Seasons.UNCUT.GERMAN.2015....
Batman.Begins.2005.MULTi.COM...
Tigermilch.2017.GERMAN.COMPL...
Tigermilch.2017.GERMAN.1080p...
Tigermilch.2017.GERMAN.720p....
Ich.einfach.unverbesserlich....
The.Prestige.2006.COMPLETE.U...
Men.in.Black.1997.COMPLETE.U...

XXX
JulesJordan.18.01.10.Olivia....
LukeHardyXXX.17.02.08.Sophie...
PornDoePedia.18.01.10.Apolon...
LethalHardcore.Schoolgirls.I...
RKPrime.18.01.11.Karlee.Grey...
LukeHardyXXX.17.05.24.Gina.S...
PornMegaLoad.18.01.09.Kamill...
PornoAcademie.18.01.09.Tina....
LukeHardyXXX.17.02.22.Lois.L...
PureMature.18.01.10.Brandi.L...
HotLegsAndFeet.18.01.09.Jenn...
From.Teen.Ass.To.Teen.Mouth....
GirlsOutWest.18.01.09.Joy.XX...
LukeHardyXXX.17.03.01.Sophie...
PornMegaLoad.18.01.08.Brandy...
FakeTaxi.18.01.10.Lilyan.Red...
JamesDeen.18.01.09.Wednesday...
IKnowThatGirl.18.01.10.Whitn...
GirlsOutWest.18.01.08.Aubrey...
PornMegaLoad.18.01.10.April....

3D
Cars.3.3D.2017.multi.complet...
Cars.3.Evolution.3D.HSBS.201...
Cars.3.Evolution.3D.HOU.2017...
Ares.2016.3D.HOU.German.1080...
Guardians.Of.The.Galaxy.Vol....
Ares.3D.2016.German.720p.Blu...
Ares.3D.2016.German.1080p.Bl...
El.Americano.Kleiner.Superhe...
Best.of.3D.vol.01.-.03.GERMA...
Pete.Smalls.is.Dead.3D.2010....
Baymax.Riesiges.Robowabohu.2...
Bigfoot.Junior.3D.2017.GERMA...
Bigfoot.Junior.3D.2017.Germa...
Bigfoot.Junior.3D.2017.Germa...
El.Americano.Kleiner.Superhe...

Old_Stuff
American.Sniper.2014.MULTi.C...
Hana-bi.Feuerblume.1997.Germ...
Memphis.Belle.1990.German.DL...
Im.Schatten.des.Mondes.Germa...
Tomb.Raider.2001.DUAL.COMPLE...
Tomb.Raider.Die.Wiege.des.Le...
Party.Animals.3.German.AC3.7...
The.Rocky.Horror.Picture.Sho...
Die.Fliege.1986.German.DTS.1...
Mimic.2.2001.German.DD5.1D.D...
The.Tournament.UNCUT.2009.Ge...
Dr.House.S08.German.720p.Blu...
Dr.House.S07.German.720p.Blu...
Dr.House.S06.German.720p.Blu...
Dr.House.S05.German.720p.Blu...

Filme
Zoo.S03.GERMAN.DUBBED.DL.108...
Ballers.S03.COMPLETE.German....
Vikings.S05.German.DD+51.DL....
Vikings.S05.German.DD+51.DL....
Zoo.S03.GERMAN.DUBBED.DL.720...
Die.Simpsons.S28.GERMAN.DUBB...
Die.Simpsons.S28.GERMAN.DUBB...
That.Thing.You.Do.1996.EXTEN...
Local.Hero.1983.German.AC3D....
Die.Fuerchterliche.Furcht.Vo...
Dragonwolf.2012.German.DL.10...
Carolin.Kebekus.Alpha.Pussy....
Wake.Of.Death.Uncut.Black.Ed...
Wake.of.Death.Uncut.2004.Ger...
Skinny.Tiger.and.Fatty.Drago...
I.Am.David.2003.German.AC3D....
I.Am.David.2003.German.AC3D....
Sirene.1.-.The.Rift.1990.Ger...
Die.Nacht.der.Abenteuer.1987...
Ich.liebe.Dich.zu.Tode.1990....
Ice.Age.5.Kollision.voraus.4...
Spion.in.Spitzenhoeschen.196...
The.Tempest.2010.German.DTS....
The.Tempest.2010.German.DTS....

 
 
Kopf.ueber.Wasser.Head.Above.Water.1996.German.AC3D.DL.1080p.WebHD.x265-FuN
Jahr: 1996
Genre: Komödie | Thriller
Sprache: Deutsch AC3 | Englisch AC3
Laufzeit: 1h 32mn
Bitrate: 3 890 Kbps
Format: MKV
Größe: 2.50 GiB
Release:

Beschreibung:

Richter George (H. Keitel) und seine hübsche junge Gattin Nathalie (C. Diaz) verbringen den Sommerurlaub auf einer kleinen, ruhigen Insel vor der Küste Maines. Nichts scheint die Idylle trügen zu können. Eines Tages unternimmt George einen Angelausflug, während Kent (B. Zane), ein Ex-Freund von Nathalie, unerwartet auftaucht. Bevor er jedoch die Insel wieder verlassen kann, ist er schon tot. Wie wird man nun die Leiche los?



Complete name                            : Kopf.ueber.Wasser.x265.mkv
Format                                   : Matroska
Format version                           : Version 4 / Version 2
File size                                : 2.50 GiB
Duration                                 : 1h 32mn
Overall bit rate                         : 3 890 Kbps
Encoded date                             : UTC 2018-01-10T07:22:05Z
Writing application                      : HandBrake 1.0.7 2017040900
Writing library                          : Lavf57.7.2

Video
ID                                       : 1
Format                                   : HEVC
Format/Info                              : High Efficiency Video Coding
Format profile                           : Main@L4.0
Codec ID                                 : V_MPEGH/ISO/HEVC
Duration                                 : 1h 32mn
Bit rate                                 : 3 044 Kbps
Width                                    : 1 920 pixels
Height                                   : 1 080 pixels
Display aspect ratio                     : 16:9
Frame rate mode                          : Constant
Frame rate                               : 23.976 fps
Color space                              : YUV
Chroma subsampling                       : 4:2:0
Bit depth                                : 8 bits
Bits/(Pixel*Frame)                       : 0.061
Stream size                              : 1.96 GiB (78%)
Writing library                          : x265 2.1:[Windows][GCC 5.3.1][64 bit] 8bit
Encoding settings                        : wpp / ctu=64 / min-cu-size=8 / max-tu-size=32 / tu-intra-depth=1 / tu-inter-depth=1 / me=1 / subme=2 / merange=57 / no-rect / no-amp / max-merge=2 / temporal-mvp / no-early-skip / rskip / rdpenalty=0 / no-tskip / no-tskip-fast / no-strong-intra-smoothing / no-lossless / no-cu-lossless / no-constrained-intra / no-fast-intra / open-gop / no-temporal-layers / interlace=0 / keyint=240 / min-keyint=24 / scenecut=40 / rc-lookahead=20 / lookahead-slices=6 / bframes=4 / bframe-bias=0 / b-adapt=2 / ref=3 / limit-refs=3 / no-limit-modes / weightp / no-weightb / aq-mode=1 / qg-size=32 / aq-strength=1.00 / cbqpoffs=0 / crqpoffs=0 / rd=3 / psy-rd=2.00 / rdoq-level=0 / psy-rdoq=0.00 / log2-max-poc-lsb=8 / no-rd-refine / signhide / deblock=0:0 / no-sao / no-sao-non-deblock / b-pyramid / cutree / no-intra-refresh / rc=crf / crf=23.0 / qcomp=0.60 / qpmin=0 / qpmax=69 / qpstep=4 / ipratio=1.40 / pbratio=1.30
Default                                  : Yes
Forced                                   : No

Audio #1
ID                                       : 2
Format                                   : AC-3
Format/Info                              : Audio Coding 3
Mode extension                           : CM (complete main)
Format settings, Endianness              : Big
Codec ID                                 : A_AC3
Duration                                 : 1h 32mn
Bit rate mode                            : Constant
Bit rate                                 : 384 Kbps
Channel(s)                               : 6 channels
Channel positions                        : Front: L C R, Side: L R, LFE
Sampling rate                            : 48.0 KHz
Bit depth                                : 16 bits
Compression mode                         : Lossy
Delay relative to video                  : -5ms
Stream size                              : 253 MiB (10%)
Title                                    : Surround
Language                                 : German
Default                                  : Yes
Forced                                   : No

Audio #2
ID                                       : 3
Format                                   : AC-3
Format/Info                              : Audio Coding 3
Mode extension                           : CM (complete main)
Format settings, Endianness              : Big
Codec ID                                 : A_AC3
Duration                                 : 1h 32mn
Bit rate mode                            : Constant
Bit rate                                 : 384 Kbps
Channel(s)                               : 6 channels
Channel positions                        : Front: L C R, Side: L R, LFE
Sampling rate                            : 48.0 KHz
Bit depth                                : 16 bits
Compression mode                         : Lossy
Delay relative to video                  : -5ms
Stream size                              : 253 MiB (10%)
Title                                    : Surround
Language                                 : English
Default                                  : No
Forced                                   : No


Download:
Share Online Share OnlineShare OnlineShare Online
 

Kommentare