Die aktuelle Sicherheitswarnung bei Filecrypt kann ignoriert werden! Man kümmert sich um das Problem!

DNS SERVER AENDERNum der staatlichen Zensur zu umgehen. Sollten wir von eurem Provider geseprrt werden, nutzt den TOR BROWSER oder ändert euren DNS SERVER.

Filmwünsche können bei uns im Forum abgegeben werden

Wir Speichern Nicht




 
 
 
Top Releases
The.Disaster.Artist.2017.MUL...
Shortwave.2016.COMPLETE.BLUR...
Maze.Runner.Die.Auserwaehlte...
Shortwave.2016.German.DL.108...
Shortwave.2016.German.720p.B...
Die.Morde.von.Madrid.2016.MU...
Jumanji.Willkommen.im.Dschun...
Die.Morde.von.Madrid.2016.GE...
Jumanji.Willkommen.im.Dschun...
Die.Morde.von.Madrid.2016.GE...

Cinedubs
Fifty.Shades.of.Grey.Befreit...
The.Disaster.Artist.2017.Ger...
The.Disaster.Artist.2017.Ger...
Peter.Hase.2018.German.MD.DL...
Peter.Hase.2018.German.MD.DL...
Pacific.Rim.2.Uprising.Germa...
Pacific.Rim.2.Uprising.Germa...
Winchester.2018.German.AC3MD...
Winchester.2018.German.AC3MD...
Red.Sparrow.German.DL.AC3.Du...

Neuerscheinungen 2017-18
Scarecrows.2017.COMPLETE.BLU...
Motorrad.The.Last.Ride.2017....
Motorrad.The.Last.Ride.2017....
Scarecrows.2017.German.720p....
Im.Jahr.des.Drachen.Year.of....
Bill.+.Teds.verrueckte.Reise...
Grease.2.1982.MULTi.COMPLETE...
Kickboxer.Die.Abrechnung.201...
Kickboxer.Die.Abrechnung.201...
Kickboxer.Die.Abrechnung.201...

XXX
WankItNow.18.03.17.Dolly.Suc...
GetYourKneesDirty.18.03.12.K...
WebYoung.18.03.16.Elsa.Jean....
Geki.Ranko.Yuki.Aida.XXX.108...
BlackSinner.17.06.20.Sheena....
ATKHairy.18.03.19.Niki.Snow....
GermanGooGirls.18.03.16.Ria....
Geki.Ranko.Yuki.Aida.XXX.720...
Watch4Beauty.18.03.21.Angel....
BlackSinner.17.06.20.Rochell...
WhenGirlsPlay.18.03.20.Amili...
Vixen.18.03.20.Tori.Black.XX...
YoungBusty.17.12.25.Jeanne.X...
YoungBusty.17.12.18.Nicole.L...
GhettoGaggers.E407.Shae.Spre...
YoungBusty.17.12.04.Nikki.Dr...
WetAndPuffy.18.03.19.Lucia.D...
Blacked.18.03.16.Abella.Dang...
GhettoGaggers.E406.Sharee.2....
YoungBusty.17.12.11.Anabelle...

3D
Jumanji.Welcome.To.The.Jungl...
Abraham.Lincoln.Vampire.Hunt...
Norwegen.3D.2013.MULTi.COMPL...
Star.Wars.Episode.VIII.Die.l...
Star.Wars.Episode.VIII.Die.l...
Star.Wars.Episode.VIII.Die.l...
Jumanji.Welcome.To.The.Jungl...
Star.Wars.The.Last.Jedi.2017...
Final.Storm.Der.Untergang.de...
Final.Storm.Der.Untergang.de...
Jumanji.Willkommen.im.Dschun...
Star.Wars.Episode.VIII.Die.l...
Star.Wars.Episode.VIII.Die.l...
Nightmare.Schlaf.nicht.ein.2...
Justice.League.3D.2017.HOU.G...

Old_Stuff
Sunshine.2007.MULTi.COMPLETE...
Sunshine.2007.German.DTS.DL....
Lawless.Die.Gesetzlosen.2012...
Cargo.Da.draussen.bist.du.al...
Nachts.im.Museum.2.2009.Germ...
Nachts.im.Museum.2006.German...
North.Country.Kaltes.Land.20...
Fuenf.Freunde.German.1080p.B...
Sin.City.2005.Theatrical.Cut...
Nuts.Durchgedreht.1987.Germa...
Antarctica.Gefangen.Im.Eis.2...
Terminator.2.Tag.Der.Abrechn...
Winters.Tale.2014.German.108...
Kampf.Der.Titanen.2010.Germa...
Bibi.und.Tina.Tohuwabohu.Tot...

Filme
NCIS.Los.Angeles.S09.GERMAN....
Happy.2017.S01.COMPLETE.Germ...
Happy.2017.S01.COMPLETE.Germ...
Greys.Anatomy.S14.German.Dub...
Britannia.S01D01-3.MULTi.COM...
Riverdale.S02.German.Dubbed....
Riverdale.S02.German.Dubbed....
Shameless.S08.GERMAN.DUBBED....
Shameless.S08.GERMAN.DUBBED....
The.Blacklist.S05.GERMAN.DUB...
The.Blacklist.S05.GERMAN.DUB...
Herbststurm.2014.German.DL.1...
Housebroken.2009.German.AC3....
Just.Add.Water.Das.Leben.ist...
Fifty.Shades.of.Grey.Befreit...
Zurueck.im.Sommer.2008.GERMA...
Crabs...die Zukunft.sind.wir...
Edgar.Wallace.Der.Faelscher....
Edgar.Wallace.Die.seltsame.G...
Vivah.-.Der.Weg.der.Liebe.-....
Maze.Runner.3.Die.Auserwaehl...
Die.gnadenlose.Clique.1986.G...
Krush.Groove.1985.German.AC3...
Atlantic.City.1980.Uncut.Ger...

 
 
Attack.the.Block.German.DL.1080p.BluRay.x264-EmpireHD
Jahr: 2011
Genre: Action, Komödie, Sci-Fi
Sprache: Deutsch DTS | Englisch DTS
Laufzeit: 1h 27mn
Bitrate: 9 197 Kbps
Format: MKV
Größe: 5.64 GiB
Release:

Beschreibung:

Moses und seine Jugendbande überfallen eine Frau, als plötzlich etwas im Auto neben ihnen einschlägt, was sich als ekliges Alien entpuppt. Nach kurzer Verfolgungsjagd wird es von den harten Teenies erfolgreich zur Strecke gebracht. Doch damit beginnt der eigentliche Ärger erst. Auf einmal regnet es im ganzen Viertel Außerirdische, die nur ein Ziel kennen: ihren toten Artgenossen aufspüren. Dabei haben sie aber nicht mit dem Widerstand der Gang gerechnet, die ihren Häuserblock zu verteidigen wissen.



Complete name                            : empire-attack-1080p.mkv
Format                                   : Matroska
Format version                           : Version 2
File size                                : 5.64 GiB
Duration                                 : 1h 27mn
Overall bit rate                         : 9 197 Kbps
Encoded date                             : UTC 2012-01-25 13:01:14
Writing application                      : mkvmerge v4.0.0 ('The Stars were mine') gebaut am Jun  6 2010 16:18:42
Writing library                          : libebml v1.0.0 + libmatroska v1.0.0

Video
ID                                       : 1
Format                                   : AVC
Format/Info                              : Advanced Video Codec
Format profile                           : High@L4.1
Format settings, CABAC                   : Yes
Format settings, ReFrames                : 5 frames
Codec ID                                 : V_MPEG4/ISO/AVC
Duration                                 : 1h 27mn
Bit rate                                 : 5 996 Kbps
Width                                    : 1 920 pixels
Height                                   : 800 pixels
Display aspect ratio                     : 2.40:1
Frame rate mode                          : Constant
Frame rate                               : 23.976 fps
Color space                              : YUV
Chroma subsampling                       : 4:2:0
Bit depth                                : 8 bits
Scan type                                : Progressive
Bits/(Pixel*Frame)                       : 0.163
Stream size                              : 3.68 GiB (65%)
Writing library                          : x264 core 120 r2146 bcd41db
Encoding settings                        : cabac=1 / ref=5 / deblock=1:0:0 / analyse=0x3:0x113 / me=umh / subme=7 / psy=1 / psy_rd=1.00:0.00 / mixed_ref=1 / me_range=16 / chroma_me=1 / trellis=1 / 8x8dct=1 / cqm=0 / deadzone=21,11 / fast_pskip=0 / chroma_qp_offset=-2 / threads=12 / sliced_threads=0 / nr=0 / decimate=1 / interlaced=0 / bluray_compat=0 / constrained_intra=0 / bframes=3 / b_pyramid=2 / b_adapt=1 / b_bias=0 / direct=1 / weightb=1 / open_gop=0 / weightp=2 / keyint=250 / keyint_min=23 / scenecut=40 / intra_refresh=0 / rc_lookahead=40 / rc=crf / mbtree=1 / crf=20.0 / qcomp=0.60 / qpmin=0 / qpmax=69 / qpstep=4 / ip_ratio=1.40 / aq=1:1.00
Language                                 : German
Default                                  : Yes
Forced                                   : No

Audio #1
ID                                       : 2
Format                                   : DTS
Format/Info                              : Digital Theater Systems
Mode                                     : 16
Format settings, Endianness              : Big
Codec ID                                 : A_DTS
Duration                                 : 1h 27mn
Bit rate mode                            : Constant
Bit rate                                 : 1 509 Kbps
Channel(s)                               : 6 channels
Channel positions                        : Front: L C R, Side: L R, LFE
Sampling rate                            : 48.0 KHz
Bit depth                                : 24 bits
Compression mode                         : Lossy
Stream size                              : 948 MiB (16%)
Language                                 : German
Default                                  : Yes
Forced                                   : No

Audio #2
ID                                       : 3
Format                                   : DTS
Format/Info                              : Digital Theater Systems
Mode                                     : 16
Format settings, Endianness              : Big
Codec ID                                 : A_DTS
Duration                                 : 1h 27mn
Bit rate mode                            : Constant
Bit rate                                 : 1 509 Kbps
Channel(s)                               : 6 channels
Channel positions                        : Front: L C R, Side: L R, LFE
Sampling rate                            : 48.0 KHz
Bit depth                                : 24 bits
Compression mode                         : Lossy
Stream size                              : 948 MiB (16%)
Language                                 : English
Default                                  : No
Forced                                   : No


Download:
Share Online Share OnlineShare OnlineShare Online
 

Kommentare