Filmwünsche können bei uns im Forum abgegeben werden

Wir Speichern Nicht




 
 
 
Top Releases
Zwischen.zwei.Leben.The.Moun...
Koerper.und.Seele.2017.Germa...
Koerper.und.Seele.2017.Germa...
Sing.2016.German.DL.2160p.UH...
Der.grosse.Gatsby.The.Great....
Pacific.Rim.2013.COMPLETE.UH...
The.Girl.on.the.Train.2016.D...
Sweet.Virginia.2017.MULTI.CO...
Sweet.Virginia.2017.German.D...
American.Made.2017.MULTi.COM...

Cinedubs
Blade.Runner.2049.3D.HSBS.Ge...
Blade.Runner.2049.GERMAN.DL....
Blade.Runner.2049.3D.HOU.Ger...
Thor.Tag.der.Entscheidung.20...
Thor.Tag.der.Entscheidung.20...
Blade.Runner.2049.2017.Germa...
Jigsaw.2017.German.AC3D.DL.7...
Jigsaw.2017.German.AC3D.DL.1...
The.LEGO.Ninjago.Movie.Germa...
The.LEGO.Ninjago.Movie.Germa...

Neuerscheinungen 2017-18
Hereinspaziert.2017.DUAL.COM...
Hampstead.Park.Aussicht.auf....
Hampstead.Park.Aussicht.auf....
Hereinspaziert.2017.German.7...
Amnesiac.2015.German.720p.Bl...
Blade.Runner.2049.German.DL....
Blade.Runner.2049.GERMAN.DL....
Blade.Runner.2049.GERMAN.DL....
Amnesiac.2015.German.DL.1080...
Pfad.der.Rache.2017.German.D...

XXX
MommysGirl.18.01.16.Bridgett...
Lesbea.18.01.14.Anie.Darling...
LukeHardyXXX.17.12.27.Stella...
JapanHDV.18.01.13.Noriko.Aot...
MySistersHotFriend.18.01.16....
LoveHerFeet.17.10.06.Alexis....
LethalHardcore.My.Stepsister...
MariskaX.18.01.14.Angelique....
LoveHerFeet.17.12.22.Brenna....
LoveHerFeet.17.09.29.Nina.No...
KinkyFamily.18.01.13.Kenzie....
LoveHerFeet.17.09.08.Sidney....
LetsTryAnal.18.01.15.Evelin....
MyFriendsHotGirl.18.01.13.Kl...
LoveHerFeet.17.09.22.Chloe.S...
Joymii.18.01.13.Tina.Kay.Fir...
MariskaX.18.01.15.Alessa.Sav...
MonsterCurves.18.01.16.Aniss...
Lustery.E85.Mary.And.Ann.Lat...
JeshByJesh.18.01.13.Victoria...

3D
Geostorm.3D.2017.HSBS.German...
Geostorm.3D.2017.HOU.German....
Geostorm.3D.2017.multi.compl...
Cars.3.3D.2017.multi.complet...
Cars.3.Evolution.3D.HSBS.201...
Cars.3.Evolution.3D.HOU.2017...
Ares.2016.3D.HOU.German.1080...
Guardians.Of.The.Galaxy.Vol....
Ares.3D.2016.German.720p.Blu...
Ares.3D.2016.German.1080p.Bl...
El.Americano.Kleiner.Superhe...
Best.of.3D.vol.01.-.03.GERMA...
Pete.Smalls.is.Dead.3D.2010....
Baymax.Riesiges.Robowabohu.2...
Bigfoot.Junior.3D.2017.GERMA...

Old_Stuff
American.Sniper.2014.MULTi.C...
Hana-bi.Feuerblume.1997.Germ...
Memphis.Belle.1990.German.DL...
Im.Schatten.des.Mondes.Germa...
Tomb.Raider.2001.DUAL.COMPLE...
Tomb.Raider.Die.Wiege.des.Le...
Party.Animals.3.German.AC3.7...
The.Rocky.Horror.Picture.Sho...
Die.Fliege.1986.German.DTS.1...
Mimic.2.2001.German.DD5.1D.D...
The.Tournament.UNCUT.2009.Ge...
Dr.House.S08.German.720p.Blu...
Dr.House.S07.German.720p.Blu...
Dr.House.S06.German.720p.Blu...
Dr.House.S05.German.720p.Blu...

Filme
Phantasm.IV.GERMAN.1998.DL.1...
Phantasm.IV.GERMAN.1998.DL.7...
Lebanon.Toedliche.Mission.20...
Spawn.1997.German.DL.1080p.B...
Die.Kammer.-.The.Chamber.199...
I.Am.David.2003.German.AC3D....
Grifters.1990.German.DL.AC3D...
Daenische.Delikatessen.2003....
Jakob.der.Luegner.aka.Jakob....
Perfect.Blue.1997.German.AC3...
Verfluchtes.Amsterdam.Uncut....
Verfluchtes.Amsterdam.Uncut....
Verfluchtes.Amsterdam.Uncut....
Der.versteinerte.Wald.-.The....
The.Astronauts.Wife.1999.Ger...
The.Big.Bang.Theory.S11.Germ...
The.Big.Bang.Theory.S11.Germ...
Star.Trek.Discovery.S01.Germ...
Supernatural.S12.GERMAN.DUBB...
Supernatural.S12.GERMAN.DUBB...
The.Expendables.THEATRICAL.2...
The.Expendables.DC.2010.Germ...
Born.to.Be.Wild.1995.German....
Shriek.Schrei.wenn.du.weisst...

 
 
Ein.Sack.voll.Murmeln.2017.German.720p.BluRay.x264-ENCOUNTERS​
Jahr: 2017
Genre: Drama
Sprache: Deutsch DTS
Laufzeit: 1h 52mn
Bitrate: 3 344 Kbps
Format: MKV
Größe: 2.63 GiB
Release:

Beschreibung:
Im Jahr 1941 erobern die Nazis nach und nach Frankreich. Vor allem in Paris wird es deswegen für jüdische Franzosen wie die Familie Joffo zu gefährlich. Die Joffos planen die Flucht nach Südfrankreich, das noch nicht von den deutschen Truppen besetzt ist. Doch weil eine gemeinsame Reise als Familie zu gefährlich wäre, verfallen sie auf einen Plan: Der zehnjährige Joseph (Dorian Le Clech) und sein älterer Bruder Maurice (Batyste Fleurial) sollen sich zunächst alleine auf den Weg machen, die Eltern reisen dann später hinterher. Die beiden Jungen erwartet ein gefährliches Abentuer, bei dem stets die Gefahr besteht, dass sie als jüdische Flüchtlinge enttarnt werden. Und auch wenn es ihnen ein ums andere Mal gelingt, den Nazis zu entkommen, ist ungewiss, ob sie an ihrem Ziel ankommen und ob auch ihrer restlichen Familie die Flucht in den Süden gelingt.


Format                                   : Matroska
Format version                           : Version 4 / Version 2
File size                                : 2.63 GiB
Duration                                 : 1h 52mn
Overall bit rate                         : 3 344 Kbps
Encoded date                             : UTC 2018-01-12 17:39:19
Writing application                      : mkvmerge v10.0.0 ('To Drown In You') 64bit
Writing library                          : libebml v1.3.4 + libmatroska v1.4.5
DURATION                                 : 01:46:28.375000000
NUMBER_OF_FRAMES                         : 16
NUMBER_OF_BYTES                          : 658
_STATISTICS_WRITING_APP                  : mkvmerge v10.0.0 ('To Drown In You') 64bit
_STATISTICS_WRITING_DATE_UTC             : 2018-01-12 17:39:19
_STATISTICS_TAGS                         : BPS DURATION NUMBER_OF_FRAMES NUMBER_OF_BYTES

Video
ID                                       : 1
Format                                   : AVC
Format/Info                              : Advanced Video Codec
Format profile                           : High@L4.1
Format settings, CABAC                   : Yes
Format settings, ReFrames                : 5 frames
Codec ID                                 : V_MPEG4/ISO/AVC
Duration                                 : 1h 52mn
Bit rate                                 : 1 769 Kbps
Width                                    : 1 280 pixels
Height                                   : 536 pixels
Display aspect ratio                     : 2.40:1
Frame rate mode                          : Constant
Frame rate                               : 24.000 fps
Color space                              : YUV
Chroma subsampling                       : 4:2:0
Bit depth                                : 8 bits
Scan type                                : Progressive
Bits/(Pixel*Frame)                       : 0.107
Stream size                              : 1.39 GiB (53%)
Title                                    : encounters-eisavomu_720p
Writing library                          : x264 core 155 r2893 b00bcaf
Encoding settings                        : cabac=1 / ref=5 / deblock=1:-1:-1 / analyse=0x3:0x133 / me=umh / subme=7 / psy=1 / psy_rd=1.00:0.15 / mixed_ref=1 / me_range=16 / chroma_me=1 / trellis=1 / 8x8dct=1 / cqm=0 / deadzone=21,11 / fast_pskip=0 / chroma_qp_offset=-3 / threads=17 / lookahead_threads=2 / sliced_threads=0 / nr=0 / decimate=1 / interlaced=0 / bluray_compat=0 / constrained_intra=0 / bframes=3 / b_pyramid=2 / b_adapt=1 / b_bias=0 / direct=1 / weightb=1 / open_gop=0 / weightp=2 / keyint=250 / keyint_min=24 / scenecut=40 / intra_refresh=0 / rc_lookahead=40 / rc=crf / mbtree=1 / crf=20.0 / qcomp=0.60 / qpmin=0 / qpmax=69 / qpstep=4 / ip_ratio=1.40 / aq=1:1.00
Default                                  : Yes
Forced                                   : No

Audio
ID                                       : 2
Format                                   : DTS
Format/Info                              : Digital Theater Systems
Mode                                     : 16
Format settings, Endianness              : Big
Codec ID                                 : A_DTS
Duration                                 : 1h 52mn
Bit rate mode                            : Constant
Bit rate                                 : 1 509 Kbps
Channel(s)                               : 6 channels
Channel positions                        : Front: L C R, Side: L R, LFE
Sampling rate                            : 48.0 KHz
Bit depth                                : 24 bits
Compression mode                         : Lossy
Stream size                              : 1.19 GiB (45%)
Title                                    : German DTS 5.1 @ 1 509 Kbps
Language                                 : German
Default                                  : Yes
Forced                                   : No

Text
ID                                       : 3
Format                                   : UTF-8
Codec ID                                 : S_TEXT/UTF8
Codec ID/Info                            : UTF-8 Plain Text
Title                                    : ger_forced.srt
Language                                 : German
Default                                  : Yes
Forced                                   : Yes


Download:
Share Online Share OnlineShare OnlineShare Online
 

Kommentare