Die aktuelle Sicherheitswarnung bei Filecrypt kann ignoriert werden! Man kümmert sich um das Problem!

DNS SERVER AENDERNum der staatlichen Zensur zu umgehen. Sollten wir von eurem Provider geseprrt werden, nutzt den TOR BROWSER oder ändert euren DNS SERVER.

Filmwünsche können bei uns im Forum abgegeben werden

Wir Speichern Nicht




 
 
 
Top Releases
Allied.2016.MULTi.COMPLETE.U...
Die.Unsichtbaren.Wir.wollen....
Bill.Was.fuer.ein.Theater.Bi...
Bill.Was.fuer.ein.Theater.20...
Bill.Was.fuer.ein.Theater.20...
Lady.Macbeth.2016.MULTI.COMP...
Lady.Macbeth.2016.GERMAN.DL....
Lady.Macbeth.2016.GERMAN.720...
Star.Wars.Episode.VIII.Die.l...
La.Melodie.Der.Klang.von.Par...

Cinedubs
Peter.Hase.2018.German.MD.DL...
Peter.Hase.2018.German.MD.DL...
Pacific.Rim.2.Uprising.Germa...
Pacific.Rim.2.Uprising.Germa...
Winchester.2018.German.AC3MD...
Winchester.2018.German.AC3MD...
Red.Sparrow.German.DL.AC3.Du...
Red.Sparrow.German.DL.AC3.Du...
The.Humanity.Bureau.2017.Ger...
Wer.ist.Daddy.German.DL.AC3....

Neuerscheinungen 2017-18
Death.Racers.2008.GERMAN.DL....
Sugar.Mountain.Spurlos.in.Al...
Sugar.Mountain.Spurlos.in.Al...
Death.Racers.2008.COMPLETE.B...
House.Harker.Vampirjaeger.wi...
Battle.For.Karbala.2015.GERM...
Amelie.rennt.2017.GERMAN.108...
Death.Racers.2008.GERMAN.720...
Amelie.rennt.2017.GERMAN.720...
House.Harker.Vampirjaeger.wi...

XXX
WankItNow.18.03.17.Dolly.Suc...
GetYourKneesDirty.18.03.12.K...
WebYoung.18.03.16.Elsa.Jean....
Geki.Ranko.Yuki.Aida.XXX.108...
BlackSinner.17.06.20.Sheena....
ATKHairy.18.03.19.Niki.Snow....
GermanGooGirls.18.03.16.Ria....
Geki.Ranko.Yuki.Aida.XXX.720...
Watch4Beauty.18.03.21.Angel....
BlackSinner.17.06.20.Rochell...
WhenGirlsPlay.18.03.20.Amili...
Vixen.18.03.20.Tori.Black.XX...
YoungBusty.17.12.25.Jeanne.X...
YoungBusty.17.12.18.Nicole.L...
GhettoGaggers.E407.Shae.Spre...
YoungBusty.17.12.04.Nikki.Dr...
WetAndPuffy.18.03.19.Lucia.D...
Blacked.18.03.16.Abella.Dang...
GhettoGaggers.E406.Sharee.2....
YoungBusty.17.12.11.Anabelle...

3D
Star.Wars.Episode.VIII.Die.l...
Star.Wars.Episode.VIII.Die.l...
Star.Wars.Episode.VIII.Die.l...
Jumanji.Welcome.To.The.Jungl...
Star.Wars.The.Last.Jedi.2017...
Final.Storm.Der.Untergang.de...
Final.Storm.Der.Untergang.de...
Jumanji.Willkommen.im.Dschun...
Star.Wars.Episode.VIII.Die.l...
Star.Wars.Episode.VIII.Die.l...
Nightmare.Schlaf.nicht.ein.2...
Justice.League.3D.2017.HOU.G...
Coco.Lebendiger.als.das.Lebe...
Coco.Lebendiger.als.das.Lebe...
Coco.Lebendiger.als.das.Lebe...

Old_Stuff
North.Country.Kaltes.Land.20...
Fuenf.Freunde.German.1080p.B...
Sin.City.2005.Theatrical.Cut...
Nuts.Durchgedreht.1987.Germa...
Antarctica.Gefangen.Im.Eis.2...
Terminator.2.Tag.Der.Abrechn...
Winters.Tale.2014.German.108...
Kampf.Der.Titanen.2010.Germa...
Bibi.und.Tina.Tohuwabohu.Tot...
Bibi.und.Tina.voll.Verhext.2...
Cargo.Da.draussen.bist.du.al...
The.Purge.Die.Saeuberung.201...
The.Purge.Anarchy.2014.MULTi...
The.Purge.3.Election.Year.20...
Orphan.Black.S02.German.DL.1...

Filme
In.the.Crossfire.2010.German...
Famine.UNCUT.GERMAN.2011.DL....
Um.jeden.Preis.2014.German.D...
Rosannas.letzter.Wille.1997....
Higher.Learning.-.Die.Rebell...
Backtrack.2014.German.DL.108...
Gladiator.2000.German.DTS.Op...
Bangkok.Adrenalin.2009.Germa...
Blind.Date.1987.German.AC3D....
Nachdem.ich.ihm.begegnet.bin...
Leprechaun.1-6.Hexalogie.Ger...
Alaska.1996.German.AC3D.DL.1...
Jab.We.Met.-.Als.ich.Dich.tr...
Koenigliche.Hochzeit.1951.Ge...
MotoGP.Moto2.Moto3.Saison.20...
MotoGP.Moto2.Moto3.Saison.20...
King.Kong.2005.EXTENDED.GERM...
Ein.Ticket.fuer.zwei.1987.Ge...
King.Kong.2005.EXTENDED.Germ...
King.Kong.2005.THEATRICAL.Ge...
Sugar.Mountain.Spurlos.in.Al...
Bram.Stokers.Dracula.1992.RE...
Eolomea.1972.German.1080p.Bl...
Eolomea.1972.German.720p.Blu...

 
 
Cars.3.Evolution.2017.German.DL.720p.BluRay.x264-COiNCiDENCE
Jahr: 2017
Genre: Animation | Abenteuer | Komödie
Sprache: Deutsch AC3 | Englisch DTS
Laufzeit: 1h 42mn
Bitrate: 4 074 Kbps
Format: MKV
Größe: 2.91 GiB
Release:

Beschreibung:

Lightning McQueen (Stimme im Original: Owen Wilson) ist ein alter Hase im Rennzirkus. Doch obwohl er von einer neuen Generation Rennwagen mehr und mehr ins Abseits gedrängt wird, will der rote Flitzer vom Ruhestand nichts wissen, vielmehr steckt er sich ein neues ehrgeiziges Ziel: Er will das Piston-Cup-Rennen gewinnen und den Jungspunden zeigen, dass er immer noch das Zeug zum Sieger hat. Doch vor allem der blitzschnelle Newcomer Jackson Storm (Armie Hammer) ist für Lightning McQueen ein ernstzunehmender Gegner und mit etlichen technischen Spielereien ausgestattet, über die McQueen nicht verfügt. Und so holt er sich Hilfe von der jungen Renntechnikerin Cruz Ramirez (Cristela Alonzo): Sie soll ihn trainieren und ihm die neuesten Tricks aus dem Rennzirkus beibringen. Und sie hat auch schon ein paar Ideen, wie sie Lightning zurück in die Spur helfen kann…




Complete name                            : coincidence-cars3-720p.mkv
Format                                   : Matroska
Format version                           : Version 4 / Version 2
File size                                : 2.91 GiB
Duration                                 : 1h 42mn
Overall bit rate                         : 4 074 Kbps
Encoded date                             : UTC 2018-01-12 14:17:48
Writing application                      : mkvmerge v8.3.0 ('Over the Horizon') 64bit
Writing library                          : libebml v1.3.1 + libmatroska v1.4.2
DURATION                                 : 01:42:25.014000000
NUMBER_OF_FRAMES                         : 576095
NUMBER_OF_BYTES                          : 1159105348
_STATISTICS_WRITING_APP                  : mkvmerge v8.3.0 ('Over the Horizon') 64bit
_STATISTICS_WRITING_DATE_UTC             : 2018-01-12 14:17:48
_STATISTICS_TAGS                         : BPS DURATION NUMBER_OF_FRAMES NUMBER_OF_BYTES

Video
ID                                       : 1
Format                                   : AVC
Format/Info                              : Advanced Video Codec
Format profile                           : High@L4.1
Format settings, CABAC                   : Yes
Format settings, ReFrames                : 5 frames
Codec ID                                 : V_MPEG4/ISO/AVC
Duration                                 : 1h 42mn
Bit rate                                 : 1 972 Kbps
Width                                    : 1 280 pixels
Height                                   : 536 pixels
Display aspect ratio                     : 2.40:1
Frame rate mode                          : Constant
Frame rate                               : 23.976 fps
Color space                              : YUV
Chroma subsampling                       : 4:2:0
Bit depth                                : 8 bits
Scan type                                : Progressive
Bits/(Pixel*Frame)                       : 0.120
Stream size                              : 1.41 GiB (48%)
Writing library                          : x264 core 155 r2893 b00bcaf
Encoding settings                        : cabac=1 / ref=5 / deblock=1:-1:-1 / analyse=0x3:0x113 / me=umh / subme=10 / psy=1 / psy_rd=1.00:0.00 / mixed_ref=1 / me_range=16 / chroma_me=1 / trellis=2 / 8x8dct=1 / cqm=0 / deadzone=21,11 / fast_pskip=0 / chroma_qp_offset=-2 / threads=17 / lookahead_threads=1 / sliced_threads=0 / nr=0 / decimate=1 / interlaced=0 / bluray_compat=0 / constrained_intra=0 / bframes=5 / b_pyramid=2 / b_adapt=1 / b_bias=0 / direct=3 / weightb=1 / open_gop=0 / weightp=1 / keyint=250 / keyint_min=23 / scenecut=40 / intra_refresh=0 / rc_lookahead=40 / rc=crf / mbtree=1 / crf=20.0 / qcomp=0.60 / qpmin=16 / qpmax=69 / qpstep=4 / ip_ratio=1.40 / aq=1:1.00
Language                                 : English
Default                                  : Yes
Forced                                   : No
DURATION                                 : 01:42:25.014000000
NUMBER_OF_FRAMES                         : 147333
NUMBER_OF_BYTES                          : 1574813527
_STATISTICS_WRITING_APP                  : mkvmerge v8.3.0 ('Over the Horizon') 64bit
_STATISTICS_WRITING_DATE_UTC             : 2018-01-12 14:17:48
_STATISTICS_TAGS                         : BPS DURATION NUMBER_OF_FRAMES NUMBER_OF_BYTES

Audio #1
ID                                       : 2
Format                                   : AC-3
Format/Info                              : Audio Coding 3
Mode extension                           : CM (complete main)
Format settings, Endianness              : Big
Codec ID                                 : A_AC3
Duration                                 : 1h 42mn
Bit rate mode                            : Constant
Bit rate                                 : 512 Kbps
Channel(s)                               : 6 channels
Channel positions                        : Front: L C R, Side: L R, LFE
Sampling rate                            : 48.0 KHz
Bit depth                                : 16 bits
Compression mode                         : Lossy
Stream size                              : 375 MiB (13%)
Language                                 : German
Default                                  : Yes
Forced                                   : No

Audio #2
ID                                       : 3
Format                                   : DTS
Format/Info                              : Digital Theater Systems
Mode                                     : 16
Format settings, Endianness              : Big
Codec ID                                 : A_DTS
Duration                                 : 1h 42mn
Bit rate mode                            : Constant
Bit rate                                 : 1 509 Kbps
Channel(s)                               : 6 channels
Channel positions                        : Front: L C R, Side: L R, LFE
Sampling rate                            : 48.0 KHz
Bit depth                                : 24 bits
Compression mode                         : Lossy
Stream size                              : 1.08 GiB (37%)
Language                                 : English
Default                                  : No
Forced                                   : No


Download:
Share Online Share OnlineShare OnlineShare Online
 

Kommentare