DNS SERVER AENDERNum der staatlichen Zensur zu umgehen. Sollten wir von eurem Provider geseprrt werden, nutzt den TOR BROWSER oder ändert euren DNS SERVER.

Filmwünsche können bei uns im Forum abgegeben werden

Wir Speichern Nicht




 
 
 
Top Releases
Wind.River.2017.German.AC3.D...
Wonder.Wheel.2017.GERMAN.720...
Wonder.Wheel.2017.German.DL....
Die.Verlegerin.2017.German.D...
Wonder.Wheel.2017.MULTi.COMP...
Peter.Hase.2018.German.AC3D....
Peter.Hase.2018.German.AC3D....
Nerve.2016.German.AC3.DL.108...
Your.Name.-.Gestern.heute.un...
Beirut.2018.German.DL.1080p....

Cinedubs
Ready.Player.One.German.DL.A...
Ready.Player.One.German.DL.A...
Rampage.2018.German.AC3D.DL....
Rampage.2018.German.AC3D.DL....
Tomb.Raider.2018.3D.HSBS.Ger...
Tomb.Raider.2018.3D.HOU.Germ...
Pacific.Rim.2.Uprising.3D.HO...
Pacific.Rim.2.Uprising.3D.HS...
Pacific.Rim.2.Uprising.Germa...
Pacific.Rim.2.Uprising.Germa...

Neuerscheinungen 2017-18
Die.Wall.Street.Verschwoerun...
Die.Wall.Street.Verschwoerun...
Die.Wall.Street.Verschwoerun...
The.Lodgers.2017.MULTI.COMPL...
Hilfe.ich.hab.meine.Eltern.g...
Hilfe.Ich.hab.meine.Eltern.g...
Hilfe.Ich.habe.meine.Eltern....
Stephanie.-.Das.Boese.in.ihr...
Stephanie.-.Das.Boese.in.ihr...
Wahrheit.oder.Pflicht.2018.G...

XXX
TrenchCoatX.17.06.06.Veronic...
StraplessDildo.18.05.30.Jia....
RKPrime.18.05.28.Mea.Melone....
Threesomes.XXX.1080p.WEBRip....
PremiumBukkake.18.05.16.Vero...
PornstarFisher.18.05.27.Neka...
PornstarPlatinum.17.09.12.Mi...
PornstarsLikeItBig.18.05.26....
PornstarPlatinum.17.07.26.In...
PornstarPlatinum.18.05.13.Ra...
Pure-BBW.18.04.19.Sexy.Bbw.A...
PrivateSociety.18.05.27.Rand...
Private.Best.Of.Fleshy.Girls...
Spizoo.18.05.28.Kendra.Cole....
Pure-BBW.18.04.05.Ebony.Bbw....
Private.18.05.26.Nelly.Kent....
PornstarsLikeItBig.18.05.26....
Private.18.05.31.Blue.Angel....
PornstarPlatinum.18.05.31.Ar...
PornMegaLoad.18.05.29.Victor...

3D
Zombies.Ueberlebe.die.Untote...
Der.Dschungel.Der.Zauber.ein...
Penthouse.Presents.Sexy.Sing...
The.LEGO.Ninjago.Movie.3D.20...
Zombies.Ueberlebe.die.Untote...
Norwegen.3D.2013.GERMAN.DL.D...
Norwegen.3D.2013.GERMAN.DOKU...
Jumanji.Willkommen.im.Dschun...
Jumanji.Welcome.To.The.Jungl...
Abraham.Lincoln.Vampire.Hunt...
Norwegen.3D.2013.MULTi.COMPL...
Star.Wars.Episode.VIII.Die.l...
Star.Wars.Episode.VIII.Die.l...
Star.Wars.Episode.VIII.Die.l...
Jumanji.Welcome.To.The.Jungl...

Old_Stuff
Weissensee.S03.2015.GERMAN.C...
Weissensee.S01+S02.2010.GERM...
Die.Unglaublichen.-.The.Incr...
Der.grosse.Trick.1978.German...
Sully.2016.MULTi.COMPLETE.BL...
Tremors.3.Die.neue.Brut.2001...
Die.Indianer.von.Cleveland.2...
Dealt.2017.1080p.AMZN.WEB-DL...
Dealt.2017.720p.AMZN.WEB-DL....
Roter.Staub.aka.The.Brave.On...
Roter.Staub.aka.The.Brave.On...
Magic.in.the.Moonlight.2014....
The.LEGO.Ninjago.Movie.2017....
Zeit.der.Zaertlichkeit.1983....
Zeit.der.Zaertlichkeit.1983....

Filme
Nixon.DC.1995.German.AC3D.DL...
Harold.und.Kumar.Alle.Jahre....
Re.E231.Kampf.um.die.Kurve.-...
Jaeger.der.Meere.German.DL.D...
Der.Zweite.Weltkrieg.2018.Ge...
We.are.legion.Die.Geschichte...
Inside.Jaguar.Eine.Million.P...
Der.Herr.der.Ringe.-.Die.Rue...
Der.Patriot.Theatrical.Open....
Verfuehrung.der.Sirenen.1993...
Die.Schulhofratten.von.Chica...
Der.freche.Kavalier.1942.Ger...
Spion.mit.meinem.Gesicht.196...
Der.richtige.Dreh.USA.1983.G...
Planet.der.Affen.Survival.20...
Planet.der.Affen.Survival.20...
Power.Rangers.2017.German.DL...
Mans.Best.Friend.1993.German...
Die.wilden.Engel.1966.KiNOFA...
Die.wilden.Engel.1966.German...
The.Lodgers.Zum.Leben.verdam...
The.Lodgers.Zum.Leben.verdam...
Wolf.Creek.2.UNCUT.2013.Germ...
Harold.und.Kumar.EXTREME.UNR...

 
 
Die.Zaertlichkeit.der.Woelfe.1973.German.PROPER.720p.BluRay.x264-DOUCEMENT
Jahr: 1973
Genre: Drama, Thriller
Sprache: Deutsch AC3
Laufzeit: 1h 22mn
Bitrate: 7 614 Kbps
Format: MKV
Größe: 4.37 GiB
Release:

Beschreibung:

Westfalen nach dem Zweiten Weltkrieg. Fleischer Fritz Haarmann ist bei den Nachbarn beliebt, weil er hin und wieder etwas abgibt. Die Polizei erpresst den wegen Verführung Minderjähriger und anderer Straftaten benutzbaren Haarmann zu Spitzeldiensten. Haarmann greift gestrandete Jungen und Strichjungen auf, bringt sie um und verarbeitet sie zu Wurstwaren. Die Nachbarn werden misstrauisch, die Polizei wartet ab. Als die Besatzungsmacht Taten sehen will, stellt der Inspektor eine Falle und ertappt Haarmann auf frischer Tat. Todesurteil.



Complete name                            : die.zaertlichkeit.der.woelfe.1973.german.proper.720p.bluray.x264-doucement.mkv
Format                                   : Matroska
Format version                           : Version 4 / Version 2
File size                                : 4.37 GiB
Duration                                 : 1h 22mn
Overall bit rate                         : 7 614 Kbps
Encoded date                             : UTC 2018-01-12 18:39:24
Writing application                      : mkvmerge v8.3.0 ('Over the Horizon') 64bit
Writing library                          : libebml v1.3.1 + libmatroska v1.4.2
DURATION                                 : 01:22:11.488000000
NUMBER_OF_FRAMES                         : 154109
NUMBER_OF_BYTES                          : 394519040
_STATISTICS_WRITING_APP                  : mkvmerge v8.3.0 ('Over the Horizon') 64bit
_STATISTICS_WRITING_DATE_UTC             : 2018-01-12 18:39:24
_STATISTICS_TAGS                         : BPS DURATION NUMBER_OF_FRAMES NUMBER_OF_BYTES

Video
ID                                       : 1
Format                                   : AVC
Format/Info                              : Advanced Video Codec
Format profile                           : High@L4.1
Format settings, CABAC                   : Yes
Format settings, ReFrames                : 5 frames
Codec ID                                 : V_MPEG4/ISO/AVC
Duration                                 : 1h 22mn
Bit rate                                 : 6 973 Kbps
Width                                    : 1 280 pixels
Height                                   : 720 pixels
Display aspect ratio                     : 16:9
Frame rate mode                          : Constant
Frame rate                               : 23.976 fps
Color space                              : YUV
Chroma subsampling                       : 4:2:0
Bit depth                                : 8 bits
Scan type                                : Progressive
Bits/(Pixel*Frame)                       : 0.316
Stream size                              : 3.92 GiB (90%)
Writing library                          : x264 core 155 r2893 b00bcaf
Encoding settings                        : cabac=1 / ref=5 / deblock=1:-1:-1 / analyse=0x3:0x133 / me=umh / subme=7 / psy=1 / psy_rd=1.00:0.15 / mixed_ref=1 / me_range=16 / chroma_me=1 / trellis=2 / 8x8dct=1 / cqm=0 / deadzone=21,11 / fast_pskip=0 / chroma_qp_offset=-3 / threads=22 / lookahead_threads=3 / sliced_threads=0 / nr=0 / decimate=1 / interlaced=0 / bluray_compat=0 / constrained_intra=0 / bframes=3 / b_pyramid=2 / b_adapt=1 / b_bias=0 / direct=3 / weightb=1 / open_gop=0 / weightp=2 / keyint=250 / keyint_min=23 / scenecut=40 / intra_refresh=0 / rc_lookahead=50 / rc=2pass / mbtree=1 / bitrate=6973 / ratetol=1.0 / qcomp=0.60 / qpmin=0 / qpmax=69 / qpstep=4 / cplxblur=20.0 / qblur=0.5 / ip_ratio=1.40 / aq=1:1.00
Language                                 : English
Default                                  : Yes
Forced                                   : No
DURATION                                 : 01:22:11.510000000
NUMBER_OF_FRAMES                         : 118238
NUMBER_OF_BYTES                          : 4297996501
_STATISTICS_WRITING_APP                  : mkvmerge v8.3.0 ('Over the Horizon') 64bit
_STATISTICS_WRITING_DATE_UTC             : 2018-01-12 18:39:24
_STATISTICS_TAGS                         : BPS DURATION NUMBER_OF_FRAMES NUMBER_OF_BYTES

Audio
ID                                       : 2
Format                                   : AC-3
Format/Info                              : Audio Coding 3
Mode extension                           : CM (complete main)
Format settings, Endianness              : Big
Codec ID                                 : A_AC3
Duration                                 : 1h 22mn
Bit rate mode                            : Constant
Bit rate                                 : 640 Kbps
Channel(s)                               : 2 channels
Channel positions                        : Front: L R
Sampling rate                            : 48.0 KHz
Bit depth                                : 16 bits
Compression mode                         : Lossy
Stream size                              : 376 MiB (8%)
Language                                 : German
Default                                  : Yes
Forced                                   : No


Download:
Share Online Share OnlineShare OnlineShare Online
 

Kommentare