DNS SERVER AENDERNum der staatlichen Zensur zu umgehen. Sollten wir von eurem Provider geseprrt werden, nutzt den TOR BROWSER oder ändert euren DNS SERVER.

Filmwünsche können bei uns im Forum abgegeben werden

Wir Speichern Nicht




 
 
 
Top Releases
Wonder.Wheel.2017.German.DL....
Wonder.Wheel.2017.MULTi.COMP...
Peter.Hase.2018.German.AC3D....
Peter.Hase.2018.German.AC3D....
Nerve.2016.German.AC3.DL.108...
Your.Name.-.Gestern.heute.un...
Beirut.2018.German.DL.1080p....
Beirut.2018.German.DL.720p.W...
Lady.Bird.2017.MULTI.COMPLET...
Set.It.Up.2018.German.Dubbed...

Cinedubs
Ready.Player.One.German.DL.A...
Ready.Player.One.German.DL.A...
Rampage.2018.German.AC3D.DL....
Rampage.2018.German.AC3D.DL....
Tomb.Raider.2018.3D.HSBS.Ger...
Tomb.Raider.2018.3D.HOU.Germ...
Pacific.Rim.2.Uprising.3D.HO...
Pacific.Rim.2.Uprising.3D.HS...
Pacific.Rim.2.Uprising.Germa...
Pacific.Rim.2.Uprising.Germa...

Neuerscheinungen 2017-18
Hilfe.ich.hab.meine.Eltern.g...
Hilfe.Ich.hab.meine.Eltern.g...
Hilfe.Ich.habe.meine.Eltern....
Stephanie.-.Das.Boese.in.ihr...
Stephanie.-.Das.Boese.in.ihr...
Wahrheit.oder.Pflicht.2018.G...
S.U.M.1.Control.your.Fear.Al...
Black.Panther.2018.German.DT...
Black.Panther.2018.German.DT...
Yellowstone.Nationalpark.201...

XXX
Passion-HD.18.05.28.Hannah.H...
Passion-HD.18.05.26.Rebel.Ly...
PlayboyPlus.18.05.29.Chloe.R...
RodneyMoore.18.05.25.Kamille...
PornstarPlatinum.18.04.24.Si...
PornstarPlatinum.18.02.13.Mi...
PornMegaLoad.18.05.26.Madiso...
SexArt.18.05.30.Veronica.Cla...
PornFidelity.E744.Ana.Foxxx....
Pure-BBW.18.05.03.Super.Sexy...
RodneyMoore.18.05.23.Jordan....
Spizoo.18.05.26.Valentina.Na...
ReadyOrNotHereICum.18.05.28....
PornMegaLoad.18.05.26.Kaho.S...
SimplyAnal.18.05.31.Lola.Shi...
ReadyOrNotHereICum.18.05.31....
PlayboyPlus.18.05.27.Mashup....
SapphicErotica.18.05.27.Domi...
RKPrime.18.05.31.Lola.Blond....
RealityJunkies.18.05.25.Pais...

3D
Zombies.Ueberlebe.die.Untote...
Der.Dschungel.Der.Zauber.ein...
Penthouse.Presents.Sexy.Sing...
The.LEGO.Ninjago.Movie.3D.20...
Zombies.Ueberlebe.die.Untote...
Norwegen.3D.2013.GERMAN.DL.D...
Norwegen.3D.2013.GERMAN.DOKU...
Jumanji.Willkommen.im.Dschun...
Jumanji.Welcome.To.The.Jungl...
Abraham.Lincoln.Vampire.Hunt...
Norwegen.3D.2013.MULTi.COMPL...
Star.Wars.Episode.VIII.Die.l...
Star.Wars.Episode.VIII.Die.l...
Star.Wars.Episode.VIII.Die.l...
Jumanji.Welcome.To.The.Jungl...

Old_Stuff
Weissensee.S03.2015.GERMAN.C...
Weissensee.S01+S02.2010.GERM...
Die.Unglaublichen.-.The.Incr...
Der.grosse.Trick.1978.German...
Sully.2016.MULTi.COMPLETE.BL...
Tremors.3.Die.neue.Brut.2001...
Die.Indianer.von.Cleveland.2...
Dealt.2017.1080p.AMZN.WEB-DL...
Dealt.2017.720p.AMZN.WEB-DL....
Roter.Staub.aka.The.Brave.On...
Roter.Staub.aka.The.Brave.On...
Magic.in.the.Moonlight.2014....
The.LEGO.Ninjago.Movie.2017....
Zeit.der.Zaertlichkeit.1983....
Zeit.der.Zaertlichkeit.1983....

Filme
The.Americans.2013.S05.GERMA...
False.Flag.S01.GERMAN.720p.H...
Patrick.Melrose.S01.German.D...
Patrick.Melrose.S01.German.D...
New.Girl.S07.COMPLETE.German...
New.Girl.S07.COMPLETE.German...
Jakob.der.Luegner.1999.Germa...
Fish.Tank.2009.German.DL.AC3...
Der.Samurai.2014.German.DL.A...
Spider.2002.German.AC3D.DL.1...
Swinging.With.The.Finkels.20...
Bestien.hinter.Gittern.aka.C...
Dieser.verrueckte.Mr.Johns.1...
Robi.und.Marian.aka.Robin.an...
Hoelle.der.Gewalt.1983.Germa...
Die.Geier.warten.schon.1973....
Die.Geier.warten.schon.1973....
Die.Fuechsin.-.Spur.auf.der....
Der.Tote.im.Watt.2013.GERMAN...
Sturmfahrt.nach.Alaska.1952....
Spice.World.1997.German.AC3D...
Saturn.3.1980.German.DL.1080...
Das.Maedchen.am.Ende.der.Str...
Das.Maedchen.am.Ende.der.Str...

 
 
Attila.Der.Hunne.2001.German.DL.1080p.BluRay.x264-iFPD
Jahr: 2001
Genre: Action, Abenteuer, Biografie
Sprache: Deutsch DTS | Englisch DTS
Laufzeit: 2h 54mn
Bitrate: 8 948 Kbps
Format: MKV
Größe: 10.9 GiB
Release:

Beschreibung:

Osteuropa im Jahre 400. Das römische Reich ist ein östliches und ein westliches geteilt, hier wie da rennen Barbaren gegen die Grenzen an. Im Gebiet der Hunnen schwingt sich just zu dieser Zeit der zornige Vollwaise Attila zum Anführer auf, um zunächst Rache an den Mördern seiner Familie zu nehmen, und nach Beseitigung verbliebener Konkurrenten mit vereinten Stämmen wider die Ausbeuter in Rom zu ziehen. In dem römischen Feldherren Flavius erwächst ihm ein ebenso gerissener wie seelenverwandter Gegner.



Complete name                            : ifpd-attila-1080p.mkv
Format                                   : Matroska
Format version                           : Version 4 / Version 2
File size                                : 10.9 GiB
Duration                                 : 2h 54mn
Overall bit rate                         : 8 948 Kbps
Encoded date                             : UTC 2014-07-18 12:53:31
Writing application                      : mkvmerge v7.0.0 ('Where We Going') 64bit built on Jun  9 2014 15:16:27
Writing library                          : libebml v1.3.0 + libmatroska v1.4.1

Video
ID                                       : 1
Format                                   : AVC
Format/Info                              : Advanced Video Codec
Format profile                           : High@L4.1
Format settings, CABAC                   : Yes
Format settings, ReFrames                : 4 frames
Codec ID                                 : V_MPEG4/ISO/AVC
Duration                                 : 2h 54mn
Bit rate                                 : 7 410 Kbps
Width                                    : 1 920 pixels
Height                                   : 1 080 pixels
Display aspect ratio                     : 16:9
Frame rate mode                          : Constant
Frame rate                               : 23.976 fps
Color space                              : YUV
Chroma subsampling                       : 4:2:0
Bit depth                                : 8 bits
Scan type                                : Progressive
Bits/(Pixel*Frame)                       : 0.149
Stream size                              : 8.83 GiB (81%)
Title                                    : Attila (2001)
Writing library                          : x264 core 142 r2431 ac76440
Encoding settings                        : cabac=1 / ref=4 / deblock=1:-1:-1 / analyse=0x3:0x113 / me=umh / subme=7 / psy=1 / psy_rd=1.00:0.00 / mixed_ref=1 / me_range=16 / chroma_me=1 / trellis=1 / 8x8dct=1 / cqm=0 / deadzone=21,11 / fast_pskip=0 / chroma_qp_offset=-2 / threads=10 / lookahead_threads=1 / sliced_threads=0 / nr=0 / decimate=1 / interlaced=0 / bluray_compat=0 / constrained_intra=0 / bframes=3 / b_pyramid=2 / b_adapt=1 / b_bias=0 / direct=3 / weightb=1 / open_gop=0 / weightp=2 / keyint=250 / keyint_min=23 / scenecut=40 / intra_refresh=0 / rc_lookahead=40 / rc=2pass / mbtree=1 / bitrate=7410 / ratetol=1.0 / qcomp=0.60 / qpmin=0 / qpmax=69 / qpstep=4 / cplxblur=20.0 / qblur=0.5 / ip_ratio=1.40 / aq=1:1.00
Default                                  : Yes
Forced                                   : No

Audio #1
ID                                       : 2
Format                                   : DTS
Format/Info                              : Digital Theater Systems
Mode                                     : 16
Format settings, Endianness              : Big
Codec ID                                 : A_DTS
Duration                                 : 2h 54mn
Bit rate mode                            : Constant
Bit rate                                 : 768 Kbps
Channel(s)                               : 6 channels
Channel positions                        : Front: L C R, Side: L R, LFE
Sampling rate                            : 48.0 KHz
Bit depth                                : 24 bits
Compression mode                         : Lossy
Stream size                              : 961 MiB (9%)
Title                                    : German
Language                                 : German
Default                                  : Yes
Forced                                   : No

Audio #2
ID                                       : 3
Format                                   : DTS
Format/Info                              : Digital Theater Systems
Mode                                     : 16
Format settings, Endianness              : Big
Codec ID                                 : A_DTS
Duration                                 : 2h 54mn
Bit rate mode                            : Constant
Bit rate                                 : 768 Kbps
Channel(s)                               : 6 channels
Channel positions                        : Front: L C R, Side: L R, LFE
Sampling rate                            : 48.0 KHz
Bit depth                                : 24 bits
Compression mode                         : Lossy
Stream size                              : 961 MiB (9%)
Title                                    : English
Language                                 : English
Default                                  : No
Forced                                   : No

Text
ID                                       : 4
Format                                   : UTF-8
Codec ID                                 : S_TEXT/UTF8
Codec ID/Info                            : UTF-8 Plain Text
Title                                    : forced
Language                                 : German
Default                                  : Yes
Forced                                   : No


Download:
Share Online Share OnlineShare OnlineShare Online
 

Kommentare