Filmwünsche können bei uns im Forum abgegeben werden

Wir Speichern Nicht




 
 
 
Top Releases
Men.in.Black.3.2012.COMPLETE...
Ich.einfach.unverbesserlich....
Better.Watch.Out.2016.GERMAN...
Better.Watch.Out.2016.GERMAN...
Interstellar.2014.COMPLETE.U...
Dunkirk.2017.German.DL.2160p...
Logan.The.Wolverine.2017.Ger...
Logan.The.Wolverine.2017.Ger...
Dunkirk.2017.German.DL.2160p...
Cars.3.2017.multi.complete.B...

Cinedubs
Jigsaw.2017.German.AC3D.DL.7...
Jigsaw.2017.German.AC3D.DL.1...
Geostorm.2017.German.AC3MD.D...
Geostorm.2017.German.AC3MD.D...
The.LEGO.Ninjago.Movie.Germa...
The.LEGO.Ninjago.Movie.Germa...
Jigsaw.German.MD.DL.1080p.WE...
Jigsaw.German.MD.DL.720p.WEB...
Star.Wars.Episode.VIII.Die.l...
Bad.Moms.2.German.MD.DL.1080...

Neuerscheinungen 2017-18
Tigermilch.2017.GERMAN.COMPL...
Tigermilch.2017.GERMAN.1080p...
Tigermilch.2017.GERMAN.720p....
Ich.einfach.unverbesserlich....
The.Prestige.2006.COMPLETE.U...
Men.in.Black.1997.COMPLETE.U...
The.Dark.Knight.2008.COMPLET...
November.Criminals.2017.Germ...
November.Criminals.2017.Germ...
November.Criminals.2017.Germ...

XXX
DorcelClub.18.01.10.Zoe.Doll...
SweetSinner.18.01.11.Alexa.G...
WcpClub.17.04.11.Luna.Star.L...
Creampie-Angels.18.01.10.Kla...
BurningAngel.18.01.11.Ivy.Le...
ATKHairy.18.01.10.Margaret.H...
CastingFrancais.18.01.11.Kat...
WcpClub.17.03.31.Julie.Cash....
DarkX.18.01.11.Jessica.Rex.A...
CzechMassage.18.01.10.Massag...
SinfulXXX.18.01.11.Cherry.Ki...
VickyAtHome.16.09.03.Bella.R...
Spizoo.18.01.10.Krissy.Lynn....
ATKHairy.18.01.11.Lida.Actio...
Cosmid.18.01.10.Belle.Wood.B...
ATKGirlfriends.18.01.11.Sami...
ExxxtraSmall.18.01.11.Athena...
VickyAtHome.16.09.28.Bella.R...
WcpClub.17.03.24.Keisha.Grey...
StepMomLessons.18.01.10.Cory...

3D
Ares.2016.3D.HOU.German.1080...
Guardians.Of.The.Galaxy.Vol....
Ares.3D.2016.German.720p.Blu...
Ares.3D.2016.German.1080p.Bl...
El.Americano.Kleiner.Superhe...
Best.of.3D.vol.01.-.03.GERMA...
Pete.Smalls.is.Dead.3D.2010....
Baymax.Riesiges.Robowabohu.2...
Bigfoot.Junior.3D.2017.GERMA...
Bigfoot.Junior.3D.2017.Germa...
Bigfoot.Junior.3D.2017.Germa...
El.Americano.Kleiner.Superhe...
El.Americano.Kleiner.Superhe...
Walhalla.Rising.3D.2009.Germ...
Spider.Man.Homecoming.3D.Ger...

Old_Stuff
American.Sniper.2014.MULTi.C...
Hana-bi.Feuerblume.1997.Germ...
Memphis.Belle.1990.German.DL...
Im.Schatten.des.Mondes.Germa...
Tomb.Raider.2001.DUAL.COMPLE...
Tomb.Raider.Die.Wiege.des.Le...
Party.Animals.3.German.AC3.7...
The.Rocky.Horror.Picture.Sho...
Die.Fliege.1986.German.DTS.1...
Mimic.2.2001.German.DD5.1D.D...
The.Tournament.UNCUT.2009.Ge...
Dr.House.S08.German.720p.Blu...
Dr.House.S07.German.720p.Blu...
Dr.House.S06.German.720p.Blu...
Dr.House.S05.German.720p.Blu...

Filme
Van.Helsing.S01.COMPLETE.Ger...
Blood.Car.2007.German.AC3D.D...
China.Strike.Force.2000.Germ...
Cocoon.2.Die.Rueckkehr.1988....
Frequency.S01.German.Dubbed....
Frequency.S01.German.Dubbed....
Ray.Donovan.S05.GERMAN.DUBBE...
Ray.Donovan.S05.GERMAN.DUBBE...
Star.Wars.The.Complete.Saga....
NCIS.S15.GERMAN.DUBBED.DL.72...
NCIS.Los.Angeles.S08.GERMAN....
Young.Sheldon.S01.GERMAN.DUB...
Young.Sheldon.S01.GERMAN.DUB...
Day.of.the.Animals.1977.Germ...
Day.of.the.Animals.1977.Germ...
Men.in.Black.II.2002.COMPLET...
Die.Eisprinzen.2007.German.1...
100.000.Dollar.in.der.Sonne....
The.Crypt.Gruft.Des.Grauens....
Verlockende.Falle.-.Entrapme...
Austenland.German.DL.1080p.B...
Star.Trek.Discovery.S01.Germ...
Austenland.German.720p.BluRa...
Boomerang.Uncut.1992.German....

 
 
Flammen.ueber.Indien.1959.German.DL.1080p.BluRay.x264-CONTRiBUTiON
Jahr: 1959
Genre: Abenteuer, Drama
Sprache: Deutsch DTS | Englisch DTS
Laufzeit: 1h 42mn
Bitrate: 12.2 Mbps
Format: MKV
Größe: 8.75 GiB
Release:

Beschreibung:

m Jahr 1905 töten muslimische Rebellen im Nordwesten Indiens den hinduistischen Maharadscha. Der englische Offizier Captain Scott kann den sechsjährigen Prinzen Kishan retten und ihn zunächst in die Stadt Hasarabad bringen. Schließlich gelingt Scott mit dem Prinzen und einer Gruppe von Mitreisenden mit einem Zug die Flucht aus der von Moslems belagerten Stadt. Während ihres 300 Meilen langen Wegs in die Sicherheit werden sie nicht nur ständig von den Rebellen bedroht, sondern müssen sich auch mit einem Verräter in den eigenen Reihen auseinander setzen.



Complete name                            : Flammen.ueber.Indien.1959.German.DL.1080p.BluRay.x264-CONTRiBUTiON.mkv
Format                                   : Matroska
Format version                           : Version 2
File size                                : 8.75 GiB
Duration                                 : 1h 42mn
Overall bit rate                         : 12.2 Mbps
Writing application                      : mkvmerge v4.1.1 ('Bouncin' Back') built on Jul  3 2010 22:54:08
Writing library                          : libebml v1.0.0 + libmatroska v1.0

Video
ID                                       : 1
Format                                   : AVC
Format/Info                              : Advanced Video Codec
Format profile                           : High@L4.1
Format settings, CABAC                   : Yes
Format settings, ReFrames                : 5 frames
Codec ID                                 : V_MPEG4/ISO/AVC
Duration                                 : 1h 42mn
Bit rate                                 : 10.7 Mbps
Width                                    : 1 920 pixels
Height                                   : 816 pixels
Display aspect ratio                     : 2.35:1
Frame rate mode                          : Constant
Frame rate                               : 23.976 fps
Color space                              : YUV
Chroma subsampling                       : 4:2:0
Bit depth                                : 8 bits
Scan type                                : Progressive
Bits/(Pixel*Frame)                       : 0.284
Stream size                              : 7.47 GiB (85%)
Writing library                          : x264 core 138 r2358kMod 9e941d1
Encoding settings                        : cabac=1 / ref=5 / deblock=1:-3:-3 / analyse=0x3:0x133 / me=umh / subme=8 / psy=1 / fade_compensate=0.00 / psy_rd=1.00:0.15 / mixed_ref=1 / me_range=16 / chroma_me=1 / trellis=1 / 8x8dct=1 / cqm=0 / deadzone=21,11 / fast_pskip=0 / chroma_qp_offset=-3 / threads=12 / lookahead_threads=2 / sliced_threads=0 / nr=0 / decimate=1 / interlaced=0 / bluray_compat=0 / constrained_intra=0 / bframes=3 / b_pyramid=2 / b_adapt=2 / b_bias=0 / direct=3 / weightb=1 / open_gop=0 / weightp=2 / keyint=240 / keyint_min=23 / scenecut=40 / intra_refresh=0 / rc_lookahead=50 / rc=2pass / mbtree=1 / bitrate=10666 / ratetol=1.0 / qcomp=0.60 / qpmin=0 / qpmax=69 / qpstep=4 / cplxblur=20.0 / qblur=0.5 / ip_ratio=1.40 / aq=1:1.00
Language                                 : English
Default                                  : Yes
Forced                                   : No

Audio #1
ID                                       : 2
Format                                   : DTS
Format/Info                              : Digital Theater Systems
Mode                                     : 16
Format settings, Endianness              : Big
Codec ID                                 : A_DTS
Duration                                 : 1h 42mn
Bit rate mode                            : Constant
Bit rate                                 : 768 Kbps
Channel(s)                               : 6 channels
Channel positions                        : Front: L C R, Side: L R, LFE
Sampling rate                            : 48.0 KHz
Bit depth                                : 24 bits
Compression mode                         : Lossy
Stream size                              : 563 MiB (6%)
Title                                    : DTS
Language                                 : German
Default                                  : Yes
Forced                                   : No

Audio #2
ID                                       : 3
Format                                   : DTS
Format/Info                              : Digital Theater Systems
Mode                                     : 16
Format settings, Endianness              : Big
Codec ID                                 : A_DTS
Duration                                 : 1h 42mn
Bit rate mode                            : Constant
Bit rate                                 : 768 Kbps
Channel(s)                               : 6 channels
Channel positions                        : Front: L C R, Side: L R, LFE
Sampling rate                            : 48.0 KHz
Bit depth                                : 24 bits
Compression mode                         : Lossy
Stream size                              : 563 MiB (6%)
Title                                    : DTS
Language                                 : English
Default                                  : Yes
Forced                                   : No


Download:
Share Online Share OnlineShare OnlineShare Online
 

Kommentare