Filmwünsche können bei uns im Forum abgegeben werden

Wir Speichern Nicht




 
 
 
Top Releases
Men.in.Black.3.2012.COMPLETE...
Ich.einfach.unverbesserlich....
Better.Watch.Out.2016.GERMAN...
Better.Watch.Out.2016.GERMAN...
Interstellar.2014.COMPLETE.U...
Dunkirk.2017.German.DL.2160p...
Logan.The.Wolverine.2017.Ger...
Logan.The.Wolverine.2017.Ger...
Dunkirk.2017.German.DL.2160p...
Cars.3.2017.multi.complete.B...

Cinedubs
Jigsaw.2017.German.AC3D.DL.7...
Jigsaw.2017.German.AC3D.DL.1...
Geostorm.2017.German.AC3MD.D...
Geostorm.2017.German.AC3MD.D...
The.LEGO.Ninjago.Movie.Germa...
The.LEGO.Ninjago.Movie.Germa...
Jigsaw.German.MD.DL.1080p.WE...
Jigsaw.German.MD.DL.720p.WEB...
Star.Wars.Episode.VIII.Die.l...
Bad.Moms.2.German.MD.DL.1080...

Neuerscheinungen 2017-18
Tigermilch.2017.GERMAN.COMPL...
Tigermilch.2017.GERMAN.1080p...
Tigermilch.2017.GERMAN.720p....
Ich.einfach.unverbesserlich....
The.Prestige.2006.COMPLETE.U...
Men.in.Black.1997.COMPLETE.U...
The.Dark.Knight.2008.COMPLET...
November.Criminals.2017.Germ...
November.Criminals.2017.Germ...
November.Criminals.2017.Germ...

XXX
DorcelClub.18.01.10.Zoe.Doll...
SweetSinner.18.01.11.Alexa.G...
WcpClub.17.04.11.Luna.Star.L...
Creampie-Angels.18.01.10.Kla...
BurningAngel.18.01.11.Ivy.Le...
ATKHairy.18.01.10.Margaret.H...
CastingFrancais.18.01.11.Kat...
WcpClub.17.03.31.Julie.Cash....
DarkX.18.01.11.Jessica.Rex.A...
CzechMassage.18.01.10.Massag...
SinfulXXX.18.01.11.Cherry.Ki...
VickyAtHome.16.09.03.Bella.R...
Spizoo.18.01.10.Krissy.Lynn....
ATKHairy.18.01.11.Lida.Actio...
Cosmid.18.01.10.Belle.Wood.B...
ATKGirlfriends.18.01.11.Sami...
ExxxtraSmall.18.01.11.Athena...
VickyAtHome.16.09.28.Bella.R...
WcpClub.17.03.24.Keisha.Grey...
StepMomLessons.18.01.10.Cory...

3D
Ares.2016.3D.HOU.German.1080...
Guardians.Of.The.Galaxy.Vol....
Ares.3D.2016.German.720p.Blu...
Ares.3D.2016.German.1080p.Bl...
El.Americano.Kleiner.Superhe...
Best.of.3D.vol.01.-.03.GERMA...
Pete.Smalls.is.Dead.3D.2010....
Baymax.Riesiges.Robowabohu.2...
Bigfoot.Junior.3D.2017.GERMA...
Bigfoot.Junior.3D.2017.Germa...
Bigfoot.Junior.3D.2017.Germa...
El.Americano.Kleiner.Superhe...
El.Americano.Kleiner.Superhe...
Walhalla.Rising.3D.2009.Germ...
Spider.Man.Homecoming.3D.Ger...

Old_Stuff
American.Sniper.2014.MULTi.C...
Hana-bi.Feuerblume.1997.Germ...
Memphis.Belle.1990.German.DL...
Im.Schatten.des.Mondes.Germa...
Tomb.Raider.2001.DUAL.COMPLE...
Tomb.Raider.Die.Wiege.des.Le...
Party.Animals.3.German.AC3.7...
The.Rocky.Horror.Picture.Sho...
Die.Fliege.1986.German.DTS.1...
Mimic.2.2001.German.DD5.1D.D...
The.Tournament.UNCUT.2009.Ge...
Dr.House.S08.German.720p.Blu...
Dr.House.S07.German.720p.Blu...
Dr.House.S06.German.720p.Blu...
Dr.House.S05.German.720p.Blu...

Filme
Van.Helsing.S01.COMPLETE.Ger...
Blood.Car.2007.German.AC3D.D...
China.Strike.Force.2000.Germ...
Cocoon.2.Die.Rueckkehr.1988....
Frequency.S01.German.Dubbed....
Frequency.S01.German.Dubbed....
Ray.Donovan.S05.GERMAN.DUBBE...
Ray.Donovan.S05.GERMAN.DUBBE...
Star.Wars.The.Complete.Saga....
NCIS.S15.GERMAN.DUBBED.DL.72...
NCIS.Los.Angeles.S08.GERMAN....
Young.Sheldon.S01.GERMAN.DUB...
Young.Sheldon.S01.GERMAN.DUB...
Day.of.the.Animals.1977.Germ...
Day.of.the.Animals.1977.Germ...
Men.in.Black.II.2002.COMPLET...
Die.Eisprinzen.2007.German.1...
100.000.Dollar.in.der.Sonne....
The.Crypt.Gruft.Des.Grauens....
Verlockende.Falle.-.Entrapme...
Austenland.German.DL.1080p.B...
Star.Trek.Discovery.S01.Germ...
Austenland.German.720p.BluRa...
Boomerang.Uncut.1992.German....

 
 
Fletch.Der.Troublemaker.1985.GERMAN.AC3D.DL.1080p.BluRay.x264-COOLHD
Jahr: 1985
Genre: Komödie
Sprache: Deutsch AC3 | Englisch DTS
Laufzeit: 1h 34mn
Bitrate: 12.4 Mbps
Format: MKV
Größe: 8.14 GiB
Release:

Beschreibung:

Irwin M. Fletcher, genannt Fletch, ist Reporter und spielt aus Lust und Laune heraus Detektiv, weil er eine Schwäche für Verkleidungen und Kostümierungen hat. Als “Penner” lässt sich Fletch zum Schein von dem reichen Alan Stanwyk als Killer engagieren. Alan hat von seiner unheilbaren Krankheit erfahren und will schneller und profitabler sterben. Stanwyk wird ermordet, seine Leiche verschwindet. Fletch deckt sein Doppelleben auf und entlarvt nebenbei einen Rauschgiftring.



Complete name                            : coolhd-fletch-1080p.mkv
Format                                   : Matroska
Format version                           : Version 4 / Version 2
File size                                : 8.14 GiB
Duration                                 : 1h 34mn
Overall bit rate                         : 12.4 Mbps
Movie name                               : COOLHD
Encoded date                             : UTC 2014-06-28 19:59:16
Writing application                      : mkvmerge v7.0.0 ('Where We Going') 32bit built on Jun  9 2014 15:08:34
Writing library                          : libebml v1.3.0 + libmatroska v1.4.1
DURATION                                 : 01:34:12.032000000
NUMBER_OF_FRAMES                         : 529878
NUMBER_OF_BYTES                          : 1066644414
_STATISTICS_WRITING_APP                  : mkvmerge v7.0.0 ('Where We Going') 32bit built on Jun  9 2014 15:08:34
_STATISTICS_WRITING_DATE_UTC             : 2014-06-28 19:59:16
_STATISTICS_TAGS                         : BPS DURATION NUMBER_OF_FRAMES NUMBER_OF_BYTES

Video
ID                                       : 1
Format                                   : AVC
Format/Info                              : Advanced Video Codec
Format profile                           : High@L4.1
Format settings, CABAC                   : Yes
Format settings, ReFrames                : 4 frames
Codec ID                                 : V_MPEG4/ISO/AVC
Duration                                 : 1h 34mn
Bit rate                                 : 10.0 Mbps
Width                                    : 1 920 pixels
Height                                   : 1 040 pixels
Display aspect ratio                     : 1.85:1
Frame rate mode                          : Constant
Frame rate                               : 25.000 fps
Original frame rate                      : 23.976 fps
Color space                              : YUV
Chroma subsampling                       : 4:2:0
Bit depth                                : 8 bits
Scan type                                : Progressive
Bits/(Pixel*Frame)                       : 0.201
Stream size                              : 6.73 GiB (83%)
Writing library                          : x264 core 67 r1137M 1fda882
Encoding settings                        : cabac=1 / ref=4 / deblock=1:-1:-1 / analyse=0x3:0x113 / me=umh / subme=7 / psy_rd=1.0:0.0 / mixed_ref=1 / me_range=16 / chroma_me=1 / trellis=2 / 8x8dct=1 / cqm=0 / deadzone=21,11 / chroma_qp_offset=-2 / threads=6 / nr=0 / decimate=1 / mbaff=0 / bframes=3 / b_pyramid=0 / b_adapt=2 / b_bias=0 / direct=3 / wpredb=1 / keyint=250 / keyint_min=25 / scenecut=40 / rc=2pass / bitrate=10046 / ratetol=1.0 / qcomp=0.60 / qpmin=10 / qpmax=51 / qpstep=4 / cplxblur=20.0 / qblur=0.5 / vbv_maxrate=50000 / vbv_bufsize=50000 / ip_ratio=1.40 / pb_ratio=1.30 / aq=1:1.00
Default                                  : Yes
Forced                                   : No

Audio #1
ID                                       : 2
Format                                   : AC-3
Format/Info                              : Audio Coding 3
Mode extension                           : CM (complete main)
Format settings, Endianness              : Big
Codec ID                                 : A_AC3
Duration                                 : 1h 34mn
Bit rate mode                            : Constant
Bit rate                                 : 384 Kbps
Channel(s)                               : 2 channels
Channel positions                        : Front: L R
Sampling rate                            : 48.0 KHz
Bit depth                                : 16 bits
Compression mode                         : Lossy
Stream size                              : 259 MiB (3%)
Language                                 : German
Default                                  : Yes
Forced                                   : No

Audio #2
ID                                       : 3
Format                                   : DTS
Format/Info                              : Digital Theater Systems
Mode                                     : 16
Format settings, Endianness              : Big
Codec ID                                 : A_DTS
Duration                                 : 1h 34mn
Bit rate mode                            : Constant
Bit rate                                 : 1 510 Kbps
Channel(s)                               : 6 channels
Channel positions                        : Front: L C R, Side: L R, LFE
Sampling rate                            : 48.0 KHz
Bit depth                                : 24 bits
Compression mode                         : Lossy
Stream size                              : 1 017 MiB (12%)
Language                                 : English
Default                                  : No
Forced                                   : No


Download:
Share Online Share OnlineShare OnlineShare Online
 

Kommentare