Filmwünsche können bei uns im Forum abgegeben werden

Wir Speichern Nicht




 
 
 
Top Releases
Men.in.Black.3.2012.COMPLETE...
Ich.einfach.unverbesserlich....
Better.Watch.Out.2016.GERMAN...
Better.Watch.Out.2016.GERMAN...
Interstellar.2014.COMPLETE.U...
Dunkirk.2017.German.DL.2160p...
Logan.The.Wolverine.2017.Ger...
Logan.The.Wolverine.2017.Ger...
Dunkirk.2017.German.DL.2160p...
Cars.3.2017.multi.complete.B...

Cinedubs
Jigsaw.2017.German.AC3D.DL.7...
Jigsaw.2017.German.AC3D.DL.1...
Geostorm.2017.German.AC3MD.D...
Geostorm.2017.German.AC3MD.D...
The.LEGO.Ninjago.Movie.Germa...
The.LEGO.Ninjago.Movie.Germa...
Jigsaw.German.MD.DL.1080p.WE...
Jigsaw.German.MD.DL.720p.WEB...
Star.Wars.Episode.VIII.Die.l...
Bad.Moms.2.German.MD.DL.1080...

Neuerscheinungen 2017-18
Tigermilch.2017.GERMAN.COMPL...
Tigermilch.2017.GERMAN.1080p...
Tigermilch.2017.GERMAN.720p....
Ich.einfach.unverbesserlich....
The.Prestige.2006.COMPLETE.U...
Men.in.Black.1997.COMPLETE.U...
The.Dark.Knight.2008.COMPLET...
November.Criminals.2017.Germ...
November.Criminals.2017.Germ...
November.Criminals.2017.Germ...

XXX
DiaryOfANanny.18.01.10.Aubre...
EternalDesire.18.01.11.Lija....
DorcelClub.18.01.10.Zoe.Doll...
SweetSinner.18.01.11.Alexa.G...
WcpClub.17.04.11.Luna.Star.L...
Creampie-Angels.18.01.10.Kla...
BurningAngel.18.01.11.Ivy.Le...
ATKHairy.18.01.10.Margaret.H...
CastingFrancais.18.01.11.Kat...
WcpClub.17.03.31.Julie.Cash....
DarkX.18.01.11.Jessica.Rex.A...
CzechMassage.18.01.10.Massag...
SinfulXXX.18.01.11.Cherry.Ki...
VickyAtHome.16.09.03.Bella.R...
Spizoo.18.01.10.Krissy.Lynn....
ATKHairy.18.01.11.Lida.Actio...
Cosmid.18.01.10.Belle.Wood.B...
ATKGirlfriends.18.01.11.Sami...
ExxxtraSmall.18.01.11.Athena...
VickyAtHome.16.09.28.Bella.R...

3D
Ares.2016.3D.HOU.German.1080...
Guardians.Of.The.Galaxy.Vol....
Ares.3D.2016.German.720p.Blu...
Ares.3D.2016.German.1080p.Bl...
El.Americano.Kleiner.Superhe...
Best.of.3D.vol.01.-.03.GERMA...
Pete.Smalls.is.Dead.3D.2010....
Baymax.Riesiges.Robowabohu.2...
Bigfoot.Junior.3D.2017.GERMA...
Bigfoot.Junior.3D.2017.Germa...
Bigfoot.Junior.3D.2017.Germa...
El.Americano.Kleiner.Superhe...
El.Americano.Kleiner.Superhe...
Walhalla.Rising.3D.2009.Germ...
Spider.Man.Homecoming.3D.Ger...

Old_Stuff
American.Sniper.2014.MULTi.C...
Hana-bi.Feuerblume.1997.Germ...
Memphis.Belle.1990.German.DL...
Im.Schatten.des.Mondes.Germa...
Tomb.Raider.2001.DUAL.COMPLE...
Tomb.Raider.Die.Wiege.des.Le...
Party.Animals.3.German.AC3.7...
The.Rocky.Horror.Picture.Sho...
Die.Fliege.1986.German.DTS.1...
Mimic.2.2001.German.DD5.1D.D...
The.Tournament.UNCUT.2009.Ge...
Dr.House.S08.German.720p.Blu...
Dr.House.S07.German.720p.Blu...
Dr.House.S06.German.720p.Blu...
Dr.House.S05.German.720p.Blu...

Filme
Brainscan.UNCUT.1994.German....
Van.Helsing.S01.COMPLETE.Ger...
Van.Helsing.S01.COMPLETE.Ger...
Blood.Car.2007.German.AC3D.D...
China.Strike.Force.2000.Germ...
Cocoon.2.Die.Rueckkehr.1988....
Frequency.S01.German.Dubbed....
Frequency.S01.German.Dubbed....
Ray.Donovan.S05.GERMAN.DUBBE...
Ray.Donovan.S05.GERMAN.DUBBE...
Star.Wars.The.Complete.Saga....
NCIS.S15.GERMAN.DUBBED.DL.72...
NCIS.Los.Angeles.S08.GERMAN....
Young.Sheldon.S01.GERMAN.DUB...
Young.Sheldon.S01.GERMAN.DUB...
Day.of.the.Animals.1977.Germ...
Day.of.the.Animals.1977.Germ...
Men.in.Black.II.2002.COMPLET...
Die.Eisprinzen.2007.German.1...
100.000.Dollar.in.der.Sonne....
The.Crypt.Gruft.Des.Grauens....
Verlockende.Falle.-.Entrapme...
Austenland.German.DL.1080p.B...
Star.Trek.Discovery.S01.Germ...

 
 
Good.Time.2017.German.DTS.DL.1080p.BluRay.x264-LeetHD
Jahr: 2017
Genre: Drama, Thriller
Sprache: Deutsch DTS | Englisch DTS
Laufzeit: 1h 41mn
Bitrate: 12.5 Mbps
Format: MKV
Größe: 8.87 GiB
Release:

Beschreibung:

Connie (Robert Pattinson) raubt eine Bank aus und wähnt sich in Sicherheit, weil der Coup ihm scheinbar gelungen ist - nur sein Komplize und jüngerer Bruder landet im Knast. Als er versucht ihn zu befreien muss Connie während einer Odyssee durch die New Yorker Unterwelt feststellen, dass eine Gruppe von Leuten ist auf ihn angesetzt worden ist und sie ihm von Minute zu Minute näherkommen. Was er auch versucht, er schafft es nicht, sie abzuschütteln und nicht nur sein, sondern auch das Leben seines inhaftierten Bruders stehen auf dem Spiel...



Complete name                            : lhd-good.time-1080.mkv
Format                                   : Matroska
Format version                           : Version 2
File size                                : 8.87 GiB
Duration                                 : 1h 41mn
Overall bit rate                         : 12.5 Mbps
Encoded date                             : UTC 2018-01-11 21:04:45
Writing application                      : mkvmerge v19.0.0 ('Brave Captain') 64-bit
Writing library                          : libebml v1.3.5 + libmatroska v1.4.8
DURATION                                 : 01:39:45.800000000
NUMBER_OF_FRAMES                         : 1265
NUMBER_OF_BYTES                          : 6960814
_STATISTICS_WRITING_APP                  : mkvmerge v19.0.0 ('Brave Captain') 64-bit
_STATISTICS_WRITING_DATE_UTC             : 2018-01-11 21:04:45
_STATISTICS_TAGS                         : BPS DURATION NUMBER_OF_FRAMES NUMBER_OF_BYTES

Video
ID                                       : 1
Format                                   : AVC
Format/Info                              : Advanced Video Codec
Format profile                           : High@L4.1
Format settings, CABAC                   : Yes
Format settings, ReFrames                : 5 frames
Codec ID                                 : V_MPEG4/ISO/AVC
Duration                                 : 1h 41mn
Bit rate                                 : 9 500 Kbps
Width                                    : 1 920 pixels
Height                                   : 802 pixels
Display aspect ratio                     : 2.40:1
Frame rate mode                          : Constant
Frame rate                               : 24.000 fps
Color space                              : YUV
Chroma subsampling                       : 4:2:0
Bit depth                                : 8 bits
Scan type                                : Progressive
Bits/(Pixel*Frame)                       : 0.257
Stream size                              : 6.56 GiB (74%)
Writing library                          : x264 core 152 r2851 ba24899
Encoding settings                        : cabac=1 / ref=5 / deblock=1:-1:-1 / analyse=0x3:0x113 / me=hex / subme=9 / psy=1 / psy_rd=0.99:0.01 / mixed_ref=1 / me_range=16 / chroma_me=1 / trellis=2 / 8x8dct=1 / cqm=0 / deadzone=21,11 / fast_pskip=0 / chroma_qp_offset=-3 / threads=12 / lookahead_threads=1 / sliced_threads=0 / nr=0 / decimate=1 / interlaced=0 / bluray_compat=0 / constrained_intra=0 / bframes=3 / b_pyramid=2 / b_adapt=2 / b_bias=0 / direct=3 / weightb=1 / open_gop=0 / weightp=2 / keyint=240 / keyint_min=24 / scenecut=40 / intra_refresh=0 / rc_lookahead=40 / rc=2pass / mbtree=1 / bitrate=9500 / ratetol=1.0 / qcomp=0.60 / qpmin=0 / qpmax=69 / qpstep=4 / cplxblur=20.0 / qblur=0.5 / vbv_maxrate=62500 / vbv_bufsize=78125 / nal_hrd=none / filler=0 / ip_ratio=1.40 / aq=1:1.00
Default                                  : Yes
Forced                                   : No

Audio #1
ID                                       : 2
Format                                   : DTS
Format/Info                              : Digital Theater Systems
Mode                                     : 16
Format settings, Endianness              : Big
Codec ID                                 : A_DTS
Duration                                 : 1h 41mn
Bit rate mode                            : Constant
Bit rate                                 : 1 509 Kbps
Channel(s)                               : 6 channels
Channel positions                        : Front: L C R, Side: L R, LFE
Sampling rate                            : 48.0 KHz
Bit depth                                : 24 bits
Compression mode                         : Lossy
Stream size                              : 1.07 GiB (12%)
Language                                 : German
Default                                  : Yes
Forced                                   : No

Audio #2
ID                                       : 3
Format                                   : DTS
Format/Info                              : Digital Theater Systems
Mode                                     : 16
Format settings, Endianness              : Big
Codec ID                                 : A_DTS
Duration                                 : 1h 41mn
Bit rate mode                            : Constant
Bit rate                                 : 1 509 Kbps
Channel(s)                               : 6 channels
Channel positions                        : Front: L C R, Side: L R, LFE
Sampling rate                            : 48.0 KHz
Bit depth                                : 24 bits
Compression mode                         : Lossy
Stream size                              : 1.07 GiB (12%)
Language                                 : English
Default                                  : No
Forced                                   : No

Text #1
ID                                       : 4
Format                                   : UTF-8
Codec ID                                 : S_TEXT/UTF8
Codec ID/Info                            : UTF-8 Plain Text
Title                                    : forced
Language                                 : German
Default                                  : Yes
Forced                                   : Yes

Text #2
ID                                       : 5
Format                                   : VobSub
Muxing mode                              : zlib
Codec ID                                 : S_VOBSUB
Codec ID/Info                            : The same subtitle format used on DVDs
Title                                    : complete
Language                                 : German
Default                                  : No
Forced                                   : No


Download:
Share Online Share OnlineShare OnlineShare Online
 

Kommentare