Filmwünsche können bei uns im Forum abgegeben werden

Wir Speichern Nicht




 
 
 
Top Releases
Men.in.Black.3.2012.COMPLETE...
Ich.einfach.unverbesserlich....
Better.Watch.Out.2016.GERMAN...
Better.Watch.Out.2016.GERMAN...
Interstellar.2014.COMPLETE.U...
Dunkirk.2017.German.DL.2160p...
Logan.The.Wolverine.2017.Ger...
Logan.The.Wolverine.2017.Ger...
Dunkirk.2017.German.DL.2160p...
Cars.3.2017.multi.complete.B...

Cinedubs
Jigsaw.2017.German.AC3D.DL.7...
Jigsaw.2017.German.AC3D.DL.1...
Geostorm.2017.German.AC3MD.D...
Geostorm.2017.German.AC3MD.D...
The.LEGO.Ninjago.Movie.Germa...
The.LEGO.Ninjago.Movie.Germa...
Jigsaw.German.MD.DL.1080p.WE...
Jigsaw.German.MD.DL.720p.WEB...
Star.Wars.Episode.VIII.Die.l...
Bad.Moms.2.German.MD.DL.1080...

Neuerscheinungen 2017-18
Tigermilch.2017.GERMAN.COMPL...
Tigermilch.2017.GERMAN.1080p...
Tigermilch.2017.GERMAN.720p....
Ich.einfach.unverbesserlich....
The.Prestige.2006.COMPLETE.U...
Men.in.Black.1997.COMPLETE.U...
The.Dark.Knight.2008.COMPLET...
November.Criminals.2017.Germ...
November.Criminals.2017.Germ...
November.Criminals.2017.Germ...

XXX
VickyAtHome.16.08.12.Sugar.D...
DiaryOfANanny.18.01.10.Aubre...
EternalDesire.18.01.11.Lija....
DorcelClub.18.01.10.Zoe.Doll...
SweetSinner.18.01.11.Alexa.G...
WcpClub.17.04.11.Luna.Star.L...
Creampie-Angels.18.01.10.Kla...
BurningAngel.18.01.11.Ivy.Le...
ATKHairy.18.01.10.Margaret.H...
CastingFrancais.18.01.11.Kat...
WcpClub.17.03.31.Julie.Cash....
DarkX.18.01.11.Jessica.Rex.A...
CzechMassage.18.01.10.Massag...
SinfulXXX.18.01.11.Cherry.Ki...
VickyAtHome.16.09.03.Bella.R...
Spizoo.18.01.10.Krissy.Lynn....
ATKHairy.18.01.11.Lida.Actio...
Cosmid.18.01.10.Belle.Wood.B...
ATKGirlfriends.18.01.11.Sami...
ExxxtraSmall.18.01.11.Athena...

3D
Ares.2016.3D.HOU.German.1080...
Guardians.Of.The.Galaxy.Vol....
Ares.3D.2016.German.720p.Blu...
Ares.3D.2016.German.1080p.Bl...
El.Americano.Kleiner.Superhe...
Best.of.3D.vol.01.-.03.GERMA...
Pete.Smalls.is.Dead.3D.2010....
Baymax.Riesiges.Robowabohu.2...
Bigfoot.Junior.3D.2017.GERMA...
Bigfoot.Junior.3D.2017.Germa...
Bigfoot.Junior.3D.2017.Germa...
El.Americano.Kleiner.Superhe...
El.Americano.Kleiner.Superhe...
Walhalla.Rising.3D.2009.Germ...
Spider.Man.Homecoming.3D.Ger...

Old_Stuff
American.Sniper.2014.MULTi.C...
Hana-bi.Feuerblume.1997.Germ...
Memphis.Belle.1990.German.DL...
Im.Schatten.des.Mondes.Germa...
Tomb.Raider.2001.DUAL.COMPLE...
Tomb.Raider.Die.Wiege.des.Le...
Party.Animals.3.German.AC3.7...
The.Rocky.Horror.Picture.Sho...
Die.Fliege.1986.German.DTS.1...
Mimic.2.2001.German.DD5.1D.D...
The.Tournament.UNCUT.2009.Ge...
Dr.House.S08.German.720p.Blu...
Dr.House.S07.German.720p.Blu...
Dr.House.S06.German.720p.Blu...
Dr.House.S05.German.720p.Blu...

Filme
Brainscan.UNCUT.1994.German....
Van.Helsing.S01.COMPLETE.Ger...
Van.Helsing.S01.COMPLETE.Ger...
Blood.Car.2007.German.AC3D.D...
China.Strike.Force.2000.Germ...
Cocoon.2.Die.Rueckkehr.1988....
Frequency.S01.German.Dubbed....
Frequency.S01.German.Dubbed....
Ray.Donovan.S05.GERMAN.DUBBE...
Ray.Donovan.S05.GERMAN.DUBBE...
Star.Wars.The.Complete.Saga....
NCIS.S15.GERMAN.DUBBED.DL.72...
NCIS.Los.Angeles.S08.GERMAN....
Young.Sheldon.S01.GERMAN.DUB...
Young.Sheldon.S01.GERMAN.DUB...
Day.of.the.Animals.1977.Germ...
Day.of.the.Animals.1977.Germ...
Men.in.Black.II.2002.COMPLET...
Die.Eisprinzen.2007.German.1...
100.000.Dollar.in.der.Sonne....
The.Crypt.Gruft.Des.Grauens....
Verlockende.Falle.-.Entrapme...
Austenland.German.DL.1080p.B...
Star.Trek.Discovery.S01.Germ...

 
 
Mother.2017.German.AC3.DL.1080p.BluRay.x264-MULTiPLEX
Jahr: 2017
Genre: Thriller
Sprache: Deutsch AC3 | Englisch AC3
Laufzeit: 2h 1mn
Bitrate: 11.6 Mbps
Format: MKV
Größe: 9.81 GiB
Release:

Beschreibung:
Ein Dichter (Javier Bardem) und seine Ehefrau (Jennifer Lawrence) haben sich in die Abgeschiedenheit eines viktorianischen Landhauses zurückgezogen. Er versucht, seine Schreibblockade zu überwinden. Sie richtet das Haus ein, kocht essen, wäscht – und wird zunehmend von alptraumhaften Eindrücken geplagt. Plötzlich steht überraschender Besuch vor der Tür: ein Fremder (Ed Harris) und wenig später dessen Ehefrau (Michelle Pfeiffer). Das Paar wird vom Dichter eingeladen, zu bleiben – obwohl die junge Frau des Künstlers, der die Aufdringlichkeit der Besucherin nicht behagt, Bedenken hat. Und die nächste Invasion des Refugiums lässt nicht lange auf sich warten: Die Söhne (Domhnall und Brian Gleeson) des fremden Ehepaares tauchen auf und tragen ihren zunehmend heftigeren Streit im Haus aus…


Complete name                            : mp-mother-1080p.mkv
Format                                   : Matroska
Format version                           : Version 4 / Version 2
File size                                : 9.81 GiB
Duration                                 : 2h 1mn
Overall bit rate                         : 11.6 Mbps
Encoded date                             : UTC 2018-01-13 09:59:16
Writing application                      : mkvmerge v8.3.0 ('Over the Horizon') 64bit
Writing library                          : libebml v1.3.1 + libmatroska v1.4.2
DURATION                                 : 01:54:28.028000000
NUMBER_OF_FRAMES                         : 2532
NUMBER_OF_BYTES                          : 6603655
_STATISTICS_WRITING_APP                  : mkvmerge v8.3.0 ('Over the Horizon') 64bit
_STATISTICS_WRITING_DATE_UTC             : 2018-01-13 09:59:16
_STATISTICS_TAGS                         : BPS DURATION NUMBER_OF_FRAMES NUMBER_OF_BYTES

Video
ID                                       : 1
Format                                   : AVC
Format/Info                              : Advanced Video Codec
Format profile                           : High@L4.1
Format settings, CABAC                   : Yes
Format settings, ReFrames                : 5 frames
Codec ID                                 : V_MPEG4/ISO/AVC
Duration                                 : 2h 1mn
Bit rate                                 : 10.1 Mbps
Width                                    : 1 920 pixels
Height                                   : 804 pixels
Display aspect ratio                     : 2.40:1
Frame rate mode                          : Constant
Frame rate                               : 23.976 fps
Color space                              : YUV
Chroma subsampling                       : 4:2:0
Bit depth                                : 8 bits
Scan type                                : Progressive
Bits/(Pixel*Frame)                       : 0.272
Stream size                              : 8.53 GiB (87%)
Writing library                          : x264 core 155 r2893 b00bcaf
Encoding settings                        : cabac=1 / ref=5 / deblock=1:-3:-3 / analyse=0x3:0x113 / me=umh / subme=11 / psy=1 / psy_rd=1.00:0.15 / mixed_ref=1 / me_range=16 / chroma_me=1 / trellis=2 / 8x8dct=1 / cqm=0 / deadzone=21,11 / fast_pskip=0 / chroma_qp_offset=-3 / threads=80 / lookahead_threads=6 / sliced_threads=0 / nr=0 / decimate=1 / interlaced=0 / bluray_compat=0 / constrained_intra=0 / bframes=5 / b_pyramid=2 / b_adapt=2 / b_bias=0 / direct=3 / weightb=1 / open_gop=0 / weightp=2 / keyint=250 / keyint_min=23 / scenecut=40 / intra_refresh=0 / rc_lookahead=40 / rc=crf / mbtree=1 / crf=19.0 / qcomp=0.60 / qpmin=10 / qpmax=69 / qpstep=4 / ip_ratio=1.40 / aq=1:1.00
Language                                 : English
Default                                  : Yes
Forced                                   : No
DURATION                                 : 02:01:11.765000000
NUMBER_OF_FRAMES                         : 174348
NUMBER_OF_BYTES                          : 9349232741
_STATISTICS_WRITING_APP                  : mkvmerge v8.3.0 ('Over the Horizon') 64bit
_STATISTICS_WRITING_DATE_UTC             : 2018-01-13 09:59:16
_STATISTICS_TAGS                         : BPS DURATION NUMBER_OF_FRAMES NUMBER_OF_BYTES

Audio #1
ID                                       : 2
Format                                   : AC-3
Format/Info                              : Audio Coding 3
Mode extension                           : CM (complete main)
Format settings, Endianness              : Big
Codec ID                                 : A_AC3
Duration                                 : 2h 1mn
Bit rate mode                            : Constant
Bit rate                                 : 640 Kbps
Channel(s)                               : 6 channels
Channel positions                        : Front: L C R, Side: L R, LFE
Sampling rate                            : 48.0 KHz
Bit depth                                : 16 bits
Compression mode                         : Lossy
Stream size                              : 555 MiB (6%)
Language                                 : German
Default                                  : Yes
Forced                                   : Yes

Audio #2
ID                                       : 3
Format                                   : AC-3
Format/Info                              : Audio Coding 3
Mode extension                           : CM (complete main)
Format settings, Endianness              : Big
Codec ID                                 : A_AC3
Duration                                 : 2h 1mn
Bit rate mode                            : Constant
Bit rate                                 : 640 Kbps
Channel(s)                               : 6 channels
Channel positions                        : Front: L C R, Side: L R, LFE
Sampling rate                            : 48.0 KHz
Bit depth                                : 16 bits
Compression mode                         : Lossy
Stream size                              : 555 MiB (6%)
Language                                 : English
Default                                  : No
Forced                                   : No

Text #1
ID                                       : 4
Format                                   : VobSub
Muxing mode                              : zlib
Codec ID                                 : S_VOBSUB
Codec ID/Info                            : The same subtitle format used on DVDs
Language                                 : German
Default                                  : No
Forced                                   : No

Text #2
ID                                       : 5
Format                                   : VobSub
Muxing mode                              : zlib
Codec ID                                 : S_VOBSUB
Codec ID/Info                            : The same subtitle format used on DVDs
Language                                 : English
Default                                  : No
Forced                                   : No

Text #3
ID                                       : 6
Format                                   : PGS
Muxing mode                              : zlib
Codec ID                                 : S_HDMV/PGS
Codec ID/Info                            : The same subtitle format used on BDs/HD-DVDs
Language                                 : German
Default                                  : No
Forced                                   : No

Text #4
ID                                       : 7
Format                                   : PGS
Muxing mode                              : zlib
Codec ID                                 : S_HDMV/PGS
Codec ID/Info                            : The same subtitle format used on BDs/HD-DVDs
Language                                 : English
Default                                  : No
Forced                                   : No


Download:
Share Online Share OnlineShare OnlineShare Online
 

Kommentare