DNS SERVER AENDERNum der staatlichen Zensur zu umgehen. Sollten wir von eurem Provider geseprrt werden, nutzt den TOR BROWSER oder ändert euren DNS SERVER.

Filmwünsche können bei uns im Forum abgegeben werden

Wir Speichern Nicht




 
 
 
Top Releases
Wind.River.2017.German.AC3.D...
Wonder.Wheel.2017.GERMAN.720...
Wonder.Wheel.2017.German.DL....
Die.Verlegerin.2017.German.D...
Wonder.Wheel.2017.MULTi.COMP...
Peter.Hase.2018.German.AC3D....
Peter.Hase.2018.German.AC3D....
Nerve.2016.German.AC3.DL.108...
Your.Name.-.Gestern.heute.un...
Beirut.2018.German.DL.1080p....

Cinedubs
Ready.Player.One.German.DL.A...
Ready.Player.One.German.DL.A...
Rampage.2018.German.AC3D.DL....
Rampage.2018.German.AC3D.DL....
Tomb.Raider.2018.3D.HSBS.Ger...
Tomb.Raider.2018.3D.HOU.Germ...
Pacific.Rim.2.Uprising.3D.HO...
Pacific.Rim.2.Uprising.3D.HS...
Pacific.Rim.2.Uprising.Germa...
Pacific.Rim.2.Uprising.Germa...

Neuerscheinungen 2017-18
Die.Wall.Street.Verschwoerun...
Die.Wall.Street.Verschwoerun...
Die.Wall.Street.Verschwoerun...
The.Lodgers.2017.MULTI.COMPL...
Hilfe.ich.hab.meine.Eltern.g...
Hilfe.Ich.hab.meine.Eltern.g...
Hilfe.Ich.habe.meine.Eltern....
Stephanie.-.Das.Boese.in.ihr...
Stephanie.-.Das.Boese.in.ihr...
Wahrheit.oder.Pflicht.2018.G...

XXX
TrenchCoatX.17.06.06.Veronic...
StraplessDildo.18.05.30.Jia....
RKPrime.18.05.28.Mea.Melone....
Threesomes.XXX.1080p.WEBRip....
PremiumBukkake.18.05.16.Vero...
PornstarFisher.18.05.27.Neka...
PornstarPlatinum.17.09.12.Mi...
PornstarsLikeItBig.18.05.26....
PornstarPlatinum.17.07.26.In...
PornstarPlatinum.18.05.13.Ra...
Pure-BBW.18.04.19.Sexy.Bbw.A...
PrivateSociety.18.05.27.Rand...
Private.Best.Of.Fleshy.Girls...
Spizoo.18.05.28.Kendra.Cole....
Pure-BBW.18.04.05.Ebony.Bbw....
Private.18.05.26.Nelly.Kent....
PornstarsLikeItBig.18.05.26....
Private.18.05.31.Blue.Angel....
PornstarPlatinum.18.05.31.Ar...
PornMegaLoad.18.05.29.Victor...

3D
Zombies.Ueberlebe.die.Untote...
Der.Dschungel.Der.Zauber.ein...
Penthouse.Presents.Sexy.Sing...
The.LEGO.Ninjago.Movie.3D.20...
Zombies.Ueberlebe.die.Untote...
Norwegen.3D.2013.GERMAN.DL.D...
Norwegen.3D.2013.GERMAN.DOKU...
Jumanji.Willkommen.im.Dschun...
Jumanji.Welcome.To.The.Jungl...
Abraham.Lincoln.Vampire.Hunt...
Norwegen.3D.2013.MULTi.COMPL...
Star.Wars.Episode.VIII.Die.l...
Star.Wars.Episode.VIII.Die.l...
Star.Wars.Episode.VIII.Die.l...
Jumanji.Welcome.To.The.Jungl...

Old_Stuff
Weissensee.S03.2015.GERMAN.C...
Weissensee.S01+S02.2010.GERM...
Die.Unglaublichen.-.The.Incr...
Der.grosse.Trick.1978.German...
Sully.2016.MULTi.COMPLETE.BL...
Tremors.3.Die.neue.Brut.2001...
Die.Indianer.von.Cleveland.2...
Dealt.2017.1080p.AMZN.WEB-DL...
Dealt.2017.720p.AMZN.WEB-DL....
Roter.Staub.aka.The.Brave.On...
Roter.Staub.aka.The.Brave.On...
Magic.in.the.Moonlight.2014....
The.LEGO.Ninjago.Movie.2017....
Zeit.der.Zaertlichkeit.1983....
Zeit.der.Zaertlichkeit.1983....

Filme
Nixon.DC.1995.German.AC3D.DL...
Harold.und.Kumar.Alle.Jahre....
Re.E231.Kampf.um.die.Kurve.-...
Jaeger.der.Meere.German.DL.D...
Der.Zweite.Weltkrieg.2018.Ge...
We.are.legion.Die.Geschichte...
Inside.Jaguar.Eine.Million.P...
Der.Herr.der.Ringe.-.Die.Rue...
Der.Patriot.Theatrical.Open....
Verfuehrung.der.Sirenen.1993...
Die.Schulhofratten.von.Chica...
Der.freche.Kavalier.1942.Ger...
Spion.mit.meinem.Gesicht.196...
Der.richtige.Dreh.USA.1983.G...
Planet.der.Affen.Survival.20...
Planet.der.Affen.Survival.20...
Power.Rangers.2017.German.DL...
Mans.Best.Friend.1993.German...
Die.wilden.Engel.1966.KiNOFA...
Die.wilden.Engel.1966.German...
The.Lodgers.Zum.Leben.verdam...
The.Lodgers.Zum.Leben.verdam...
Wolf.Creek.2.UNCUT.2013.Germ...
Harold.und.Kumar.EXTREME.UNR...

 
 
Found.Mein.Bruder.ist.ein.Serienkiller.UNCUT.GERMAN.2012.DL.1080P.BLURAY.X264-AMBASSADOR
Jahr: 2012
Genre: Horror, Thriller
Sprache: Deutsch DTS | Englisch DTS
Laufzeit: 1h 42mn
Bitrate: 6 865 Kbps
Format: MKV
Größe: 4.93 GiB
Release:

Beschreibung:

Der zwölfjährige Marty ist der Sandsack aller Grobiane an seiner High School und flüchtet sich in Horrorfilme, die er in rauen Mengen konsumiert. Sein großer Bruder Steve wohnt zwar noch daheim, hat sich aber weitgehend von den Eltern abgenabelt und lebt längst seinen eigenen Horrorfilm. Marty erfährt das, als er eines Tages in der Bowlingtasche des Bruders den abgetrennten Kopf eines Menschen entdeckt. Als Marty daraufhin seinem Bruder von den Nachstellungen in der Schule erzählt, nimmt dieser sich der Sache persönlich an.



Complete name                            : ar-foundserienkiller-1080p.mkv
Format                                   : Matroska
Format version                           : Version 4 / Version 2
File size                                : 4.93 GiB
Duration                                 : 1h 42mn
Overall bit rate                         : 6 865 Kbps
Encoded date                             : UTC 2015-07-25 07:02:24
Writing application                      : mkvmerge v6.9.1 ('Blue Panther') 32bit built on Apr 18 2014 18:15:44
Writing library                          : libebml v1.3.0 + libmatroska v1.4.1

Video
ID                                       : 1
Format                                   : AVC
Format/Info                              : Advanced Video Codec
Format profile                           : High@L4.1
Format settings, CABAC                   : Yes
Format settings, ReFrames                : 5 frames
Codec ID                                 : V_MPEG4/ISO/AVC
Duration                                 : 1h 42mn
Bit rate                                 : 4 452 Kbps
Width                                    : 1 920 pixels
Height                                   : 808 pixels
Display aspect ratio                     : 2.40:1
Frame rate mode                          : Constant
Frame rate                               : 23.976 fps
Color space                              : YUV
Chroma subsampling                       : 4:2:0
Bit depth                                : 8 bits
Scan type                                : Progressive
Bits/(Pixel*Frame)                       : 0.120
Stream size                              : 3.20 GiB (65%)
Writing library                          : x264 core 146 r2538 121396c
Encoding settings                        : cabac=1 / ref=5 / deblock=1:0:0 / analyse=0x3:0x133 / me=umh / subme=7 / psy=1 / psy_rd=1.00:0.00 / mixed_ref=1 / me_range=16 / chroma_me=1 / trellis=1 / 8x8dct=1 / cqm=0 / deadzone=21,11 / fast_pskip=0 / chroma_qp_offset=-2 / threads=12 / lookahead_threads=2 / sliced_threads=0 / nr=0 / decimate=1 / interlaced=0 / bluray_compat=0 / constrained_intra=0 / bframes=3 / b_pyramid=2 / b_adapt=1 / b_bias=0 / direct=1 / weightb=1 / open_gop=0 / weightp=1 / keyint=250 / keyint_min=23 / scenecut=40 / intra_refresh=0 / rc_lookahead=40 / rc=crf / mbtree=1 / crf=20.0 / qcomp=0.60 / qpmin=0 / qpmax=69 / qpstep=4 / ip_ratio=1.40 / aq=1:1.00
Default                                  : Yes
Forced                                   : No

Audio #1
ID                                       : 2
Format                                   : DTS
Format/Info                              : Digital Theater Systems
Mode                                     : 16
Format settings, Endianness              : Big
Codec ID                                 : A_DTS
Duration                                 : 1h 42mn
Bit rate mode                            : Constant
Bit rate                                 : 1 509 Kbps
Channel(s)                               : 6 channels
Channel positions                        : Front: L C R, Side: L R, LFE
Sampling rate                            : 48.0 KHz
Bit depth                                : 16 bits
Compression mode                         : Lossy
Stream size                              : 1.08 GiB (22%)
Language                                 : German
Default                                  : Yes
Forced                                   : No

Audio #2
ID                                       : 3
Format                                   : DTS
Format/Info                              : Digital Theater Systems
Mode                                     : 16
Format settings, Endianness              : Big
Codec ID                                 : A_DTS
Duration                                 : 1h 42mn
Bit rate mode                            : Constant
Bit rate                                 : 768 Kbps
Channel(s)                               : 6 channels
Channel positions                        : Front: L C R, Side: L R, LFE
Sampling rate                            : 48.0 KHz
Bit depth                                : 16 bits
Compression mode                         : Lossy
Stream size                              : 565 MiB (11%)
Language                                 : English
Default                                  : No
Forced                                   : No

Text
ID                                       : 4
Format                                   : UTF-8
Codec ID                                 : S_TEXT/UTF8
Codec ID/Info                            : UTF-8 Plain Text
Language                                 : German
Default                                  : No
Forced                                   : No


Download:
Share Online Share OnlineShare OnlineShare Online
 

Kommentare