DNS SERVER AENDERNum der staatlichen Zensur zu umgehen. Sollten wir von eurem Provider geseprrt werden, nutzt den TOR BROWSER oder ändert euren DNS SERVER.

Filmwünsche können bei uns im Forum abgegeben werden

Wir Speichern Nicht




 
 
 
Top Releases
Mollys.Game.Alles.auf.eine.K...
Mollys.Game.Alles.auf.eine.K...
Low.Budget.Stuntman.2017.DUA...
Low.Budget.Stuntman.2017.Ger...
Low.Budget.Stuntman.2017.Ger...
Game.Night.2018.MULTI.COMPLE...
God.of.War.2017.MULTi.COMPLE...
God.of.War.2017.German.1080p...
God.of.War.2017.German.720p....
I.Kill.Giants.2017.MULTi.COM...

Cinedubs
Die.Frau.die.vorausgeht.2017...
Die.Frau.die.vorausgeht.2017...
Super.Troopers.2.2018.German...
Thoroughbreds.2017.German.AC...
Thoroughbreds.2017.German.AC...
Vom.Ende.einer.Geschichte.20...
Vom.Ende.einer.Geschichte.20...
I.Feel.Pretty.2018.German.AC...
I.Feel.Pretty.2018.German.AC...
Wahrheit.oder.Pflicht.UNCUT....

Neuerscheinungen 2017-18
Queimada.1969.MULTi.COMPLETE...
Dwelling.2016.COMPLETE.BLURA...
Startup.Traue.nur.dir.selbst...
Bitter.Enemies.Only.Gold.Can...
Banditen.Bandits.2001.MULTi....
Black.Mirror.Tod.hinter.Glas...
Black.Mirror.Tod.hinter.Glas...
Barb.Wire.UNRATED.GERMAN.199...
Barb.Wire.UNRATED.GERMAN.199...
The.Atoning.2017.DUAL.COMPLE...

XXX
LetsTryAnal.18.07.05.Adria.R...
PornstarsLikeItBig.18.07.05....
RealWifeStories.18.07.05.Ari...
Babes.18.07.05.Jessa.Rhodes....
21EroticAnal.18.07.05.Lilit....
AGirlKnows.18.07.05.Lexi.Don...
Bang.Glamkore.18.07.05.Linda...
DevilsFilm.Neighborhood.Swin...
ExxxtraSmall.18.07.05.Eva.Yi...
FamilyStrokes.18.07.05.Sarah...
OnlyBlowJob.18.07.05.Paola.G...
Private.18.07.05.Daniella.Ma...
SweetSinner.The.Voyeur.2.XXX...
TrenchCoatX.18.07.04.Bree.Da...
Watch4Beauty.18.07.05.Ariela...
Fitting-Room.18.07.05.Little...
PornMegaLoad.18.07.04.Best.A...
PornMegaLoad.18.07.04.Elle.V...
UltimateSurrender.18.07.04.C...
UpHerAsshole.18.07.05.Anny.A...

3D
Ready.Player.One.2018.3D.HOU...
Ready.Player.One.2018.3D.HSB...
Ready.Player.One.3D.2018.MUL...
Black.Panther.3D.2018.MULTI....
Black.Panther.3D.HOU.2018.Ge...
Black.Panther.3D.HSBS.2018.G...
Best.of.3D.vol.04.-.06.GERMA...
Tomb.Raider.2018.3D.HOU.Germ...
Tomb.Raider.2018.3D.HSBS.Ger...
Tomb.Raider.2018.3D.COMPLETE...
Zombies.Ueberlebe.die.Untote...
Der.Dschungel.Der.Zauber.ein...
Penthouse.Presents.Sexy.Sing...
The.LEGO.Ninjago.Movie.3D.20...
Zombies.Ueberlebe.die.Untote...

Old_Stuff
Meine.liebe.Rabenmutter.germ...
Da.Vincis.Demons.S01.Complet...
Eragon.Das.Vermaechtnis.der....
Adele.und.das.Geheimnis.des....
Die.fabelhafte.Welt.der.Amel...
Haus.des.Geldes.S01.German.M...
How.I.Met.Your.Mother.S01.Ge...
The.Dark.Knight.Rises.2012.M...
Weissensee.S03.2015.GERMAN.C...
Weissensee.S01+S02.2010.GERM...
Die.Unglaublichen.-.The.Incr...
Der.grosse.Trick.1978.German...
Sully.2016.MULTi.COMPLETE.BL...
Tremors.3.Die.neue.Brut.2001...
Die.Indianer.von.Cleveland.2...

Filme
Outside.The.Law.2002.German....
Two.Weeks.-.Im.Kreise.ihrer....
Die.Legende.Von.Omar.The.Kee...
Peters.Friends.1992.German.A...
Peters.Friends.1992.German.A...
Katzenmenschen.Restored.1942...
Katzenmenschen.1942.Restored...
Das.Reich.der.Sonne.1987.Blu...
Reds.1981.German.AC3D.DL.108...
Schneller.als.der.Tod.1995.G...
Das.Zeitraetsel.2018.German....
Haengt.ihn.hoeher.1968.Germa...
Haengt.ihn.hoeher.1968.Germa...
Schlaraffenhaus.UNCUT.GERMAN...
Second.in.Command.2006.Germa...
The.White.Princess.S01.COMPL...
South.Central.In.den.Strasse...
Trespassers.Blood.Waves.UNRA...
The.White.Princess.S01.COMPL...
Geheimakte.Otto.Waalkes-Harr...
Supergirl.S03.GERMAN.720p.HD...
How.to.Get.Away.with.Murder....
The.Flash.2014.S04.GERMAN.72...
Gotham.S04.GERMAN.720p.HDTV....

 
 
Sprengkommando.Atlantik.1980.German.DL.1080p.BluRay.x264-BluRHD
Jahr: 1980
Genre: Action, Drama
Sprache: Deutsch DTS | Englisch DTS
Laufzeit: 1h 39mn
Bitrate: 11.9 Mbps
Format: MKV
Größe: 8.28 GiB
Release:

Beschreibung:

Terroristen haben zwei Bohrinseln in der Nordsee in ihre Gewalt gebracht und drohen damit, sie im Meer zu versenken, wenn das Lösegeld, das sie fordern, nicht gezahlt wird. Die britische Regierung hat nicht viele Alternativen, daher beauftragt sie Rufus ffolkes (Roger Moore) (nur echt mit zwei kleinen ‘f’), die Bohrinsel zu befreien. Dabei erweckt ffolkes zunächst vor allem die Zweifel von Admiral Brindsen (James Mason), denn bei der Hoffnung der britischen Regierung handelt es sich um einen ausgemachten Exzentriker, der Frauen verachtet, schon morgens trinkt, seine Männer mit scharfen Handgranaten ansputet und in seiner Freizeit seinen zahlreichen Katzen huldigt. Doch ffolkes macht schnell klar: Er ist dem Gegner immer einen Schritt voraus.



Complete name                            : bhd-spratl-1080p.mkv
Format                                   : Matroska
Format version                           : Version 2
File size                                : 8.28 GiB
Duration                                 : 1h 39mn
Overall bit rate                         : 11.9 Mbps
Encoded date                             : UTC 2017-08-30 18:21:58
Writing application                      : mkvmerge v4.5.0 ('Speed of Light') gebaut am Feb  1 2011 02:10:32
Writing library                          : libebml v1.2.0 + libmatroska v1.1.0

Video
ID                                       : 1
Format                                   : AVC
Format/Info                              : Advanced Video Codec
Format profile                           : High@L4.1
Format settings, CABAC                   : Yes
Format settings, ReFrames                : 3 frames
Codec ID                                 : V_MPEG4/ISO/AVC
Duration                                 : 1h 39mn
Bit rate                                 : 8 891 Kbps
Width                                    : 1 920 pixels
Height                                   : 1 040 pixels
Display aspect ratio                     : 1.85:1
Frame rate mode                          : Constant
Frame rate                               : 23.976 fps
Color space                              : YUV
Chroma subsampling                       : 4:2:0
Bit depth                                : 8 bits
Scan type                                : Progressive
Bits/(Pixel*Frame)                       : 0.186
Stream size                              : 6.02 GiB (73%)
Writing library                          : x264 core 148 r2744 b97ae06
Encoding settings                        : cabac=1 / ref=4 / deblock=1:-1:-1 / analyse=0x3:0x113 / me=umh / subme=7 / psy=1 / psy_rd=1.00:0.15 / mixed_ref=1 / me_range=16 / chroma_me=1 / trellis=2 / 8x8dct=1 / cqm=0 / deadzone=21,11 / fast_pskip=1 / chroma_qp_offset=-3 / threads=32 / lookahead_threads=5 / sliced_threads=0 / nr=0 / decimate=1 / interlaced=0 / bluray_compat=0 / constrained_intra=0 / bframes=3 / b_pyramid=1 / b_adapt=2 / b_bias=0 / direct=1 / weightb=1 / open_gop=0 / weightp=1 / keyint=240 / keyint_min=23 / scenecut=40 / intra_refresh=0 / rc_lookahead=30 / rc=2pass / mbtree=1 / bitrate=8891 / ratetol=1.0 / qcomp=0.60 / qpmin=0 / qpmax=69 / qpstep=4 / cplxblur=20.0 / qblur=0.5 / ip_ratio=1.40 / aq=1:1.00
Default                                  : Yes
Forced                                   : No

Audio #1
ID                                       : 2
Format                                   : DTS
Format/Info                              : Digital Theater Systems
Mode                                     : 16
Format settings, Endianness              : Big
Codec ID                                 : A_DTS
Duration                                 : 1h 39mn
Bit rate mode                            : Constant
Bit rate                                 : 1 509 Kbps
Channel(s)                               : 2 channels
Channel positions                        : Front: L R
Sampling rate                            : 48.0 KHz
Bit depth                                : 24 bits
Compression mode                         : Lossy
Delay relative to video                  : 11ms
Stream size                              : 1.05 GiB (13%)
Title                                    : German
Language                                 : German
Default                                  : Yes
Forced                                   : No

Audio #2
ID                                       : 3
Format                                   : DTS
Format/Info                              : Digital Theater Systems
Mode                                     : 16
Format settings, Endianness              : Big
Codec ID                                 : A_DTS
Duration                                 : 1h 39mn
Bit rate mode                            : Constant
Bit rate                                 : 1 509 Kbps
Channel(s)                               : 2 channels
Channel positions                        : Front: L R
Sampling rate                            : 48.0 KHz
Bit depth                                : 24 bits
Compression mode                         : Lossy
Delay relative to video                  : 11ms
Stream size                              : 1.05 GiB (13%)
Title                                    : English
Language                                 : English
Default                                  : No
Forced                                   : No


Download:
Share Online Share OnlineShare OnlineShare Online
 

Kommentare