DNS SERVER AENDERNum der staatlichen Zensur zu umgehen. Sollten wir von eurem Provider geseprrt werden, nutzt den TOR BROWSER oder ändert euren DNS SERVER.

Filmwünsche können bei uns im Forum abgegeben werden

Wir Speichern Nicht




 
 
 
Top Releases
Das.Leben.ist.ein.Fest.2017....
Central.Intelligence.EXTENDE...
Wind.River.2017.German.AC3.D...
Wonder.Wheel.2017.GERMAN.720...
Wonder.Wheel.2017.German.DL....
Die.Verlegerin.2017.German.D...
Wonder.Wheel.2017.MULTi.COMP...
Peter.Hase.2018.German.AC3D....
Peter.Hase.2018.German.AC3D....
Nerve.2016.German.AC3.DL.108...

Cinedubs
Ready.Player.One.German.DL.A...
Ready.Player.One.German.DL.A...
Rampage.2018.German.AC3D.DL....
Rampage.2018.German.AC3D.DL....
Tomb.Raider.2018.3D.HSBS.Ger...
Tomb.Raider.2018.3D.HOU.Germ...
Pacific.Rim.2.Uprising.3D.HO...
Pacific.Rim.2.Uprising.3D.HS...
Pacific.Rim.2.Uprising.Germa...
Pacific.Rim.2.Uprising.Germa...

Neuerscheinungen 2017-18
Wahrheit.oder.Pflicht.2018.G...
Die.gnadenlosen.Vier.Posse.f...
Die.Wall.Street.Verschwoerun...
Die.Wall.Street.Verschwoerun...
Die.Wall.Street.Verschwoerun...
The.Lodgers.2017.MULTI.COMPL...
Hilfe.ich.hab.meine.Eltern.g...
Hilfe.Ich.hab.meine.Eltern.g...
Hilfe.Ich.habe.meine.Eltern....
Stephanie.-.Das.Boese.in.ihr...

XXX
HollyRandall.18.05.22.Ivy.Wo...
MeloneChallenge.18.06.12.Wen...
MetArtX.18.06.12.Melody.Wyld...
TheLifeErotic.18.06.12.Kate....
PornMegaLoad.18.06.11.Whitne...
LaCochonne.18.06.12.Sonya.Du...
HollyRandall.18.06.05.Mona.R...
GrandpasFuckTeens.18.06.12.L...
PornMegaLoad.18.06.11.Skye.S...
PublicPickUps.18.06.12.Rosse...
WildOnCam.18.06.12.Tori.Avan...
PureTaboo.18.06.12.Kendra.Sp...
ClubSeventeen.18.06.12.Dunya...
CzechCasting.18.06.11.Johank...
AmateurCFNM.18.06.12.Lexi.Ry...
ImmoralLive.18.06.12.Kesha.O...
BigButtsLikeItBig.18.06.12.A...
WildOnCam.18.06.12.Dolly.Lei...
Hegre.18.06.12.Grace.Dildo.D...
BrazzersExxtra.18.06.12.Laur...

3D
Zombies.Ueberlebe.die.Untote...
Der.Dschungel.Der.Zauber.ein...
Penthouse.Presents.Sexy.Sing...
The.LEGO.Ninjago.Movie.3D.20...
Zombies.Ueberlebe.die.Untote...
Norwegen.3D.2013.GERMAN.DL.D...
Norwegen.3D.2013.GERMAN.DOKU...
Jumanji.Willkommen.im.Dschun...
Jumanji.Welcome.To.The.Jungl...
Abraham.Lincoln.Vampire.Hunt...
Norwegen.3D.2013.MULTi.COMPL...
Star.Wars.Episode.VIII.Die.l...
Star.Wars.Episode.VIII.Die.l...
Star.Wars.Episode.VIII.Die.l...
Jumanji.Welcome.To.The.Jungl...

Old_Stuff
Weissensee.S03.2015.GERMAN.C...
Weissensee.S01+S02.2010.GERM...
Die.Unglaublichen.-.The.Incr...
Der.grosse.Trick.1978.German...
Sully.2016.MULTi.COMPLETE.BL...
Tremors.3.Die.neue.Brut.2001...
Die.Indianer.von.Cleveland.2...
Dealt.2017.1080p.AMZN.WEB-DL...
Dealt.2017.720p.AMZN.WEB-DL....
Roter.Staub.aka.The.Brave.On...
Roter.Staub.aka.The.Brave.On...
Magic.in.the.Moonlight.2014....
The.LEGO.Ninjago.Movie.2017....
Zeit.der.Zaertlichkeit.1983....
Zeit.der.Zaertlichkeit.1983....

Filme
The.Royals.2015.S04.German.D...
Marvels.Runaways.S01.German....
The.Good.Fight.S02.German.DD...
The.Good.Fight.S02.German.DD...
Blindspot.S03.German.DL.DUBB...
Excision.2012.German.AC3.DL....
Stand.and.Deliver.1988.Germa...
Criminal.Squad.EXTENDED.2018...
The.Stranger.Within.-.Gefäh...
Die.Geier.warten.schon.1973....
The.Sea.of.Trees.2015.German...
Conan.2011.German.Dubbed.DTS...
Flammen.am.Horizont.aka.Wron...
Apollo.13.1995.German.DTS.DL...
Central.Intelligence.2016.UN...
Der.Herr.der.Ringe.-.Die.zwe...
Der.Babadook.2014.German.DL....
Der.Babadook.2014.German.DL....
18.Stunden.bis.zur.Ewigkeit....
18.Stunden.bis.zur.Ewigkeit....
Das.Jerico.Projekt.Im.Kopf.d...
Die.letzten.Gluehwuermchen.1...
L.A.Confidential.REMASTERED....
Der.Hobbit.-.Eine.unerwartet...

 
 
Der.Aufstieg.2017.German.Dubbed.1080p.WEBRip.x264.REPACK-BiGiNT
Jahr: 2017
Genre: Abenteuer, Komödie
Sprache: Deutsch AC3
Laufzeit: 1h 45mn
Bitrate: 4 055 Kbps
Format: MKV
Größe: 2.98 GiB
Release:

Beschreibung:

Was hat sich Samy Diakhate (Ahmed Sylla) da nur eingebrockt, als er vor seiner Freundin Nadia (Alice Belaïdi) rumtönte, dass er für sie alles machen würde, sogar den Mount Everest besteigen. Nadia zeigt sich nämlich wenig beeindruckt und so muss Samy seinen Worten wohl Taten folgen lassen. Tatsächlich macht sich der Franzose anschließend auf, um den 8.848 Meter hohen Berg zu bezwingen und bewegt damit nicht nur seine Freundin, sondern auch ganz Frankreich.

 

NOTES         : Nun mit korrekter FPS und deshalb auch nicht async.


Complete name                            : der.aufstieg.2017.german.dubbed.1080p.webrip.x264.repack-bigint.mkv
Format                                   : Matroska
Format version                           : Version 4 / Version 2
File size                                : 2.98 GiB
Duration                                 : 1h 45mn
Overall bit rate                         : 4 055 Kbps
Encoded date                             : UTC 2018-01-13 22:15:34
Writing application                      : mkvmerge v13.0.0 ('The Juggler') 64bit
Writing library                          : libebml v1.3.4 + libmatroska v1.4.5
DURATION                                 : 01:43:59.667000000
NUMBER_OF_FRAMES                         : 1275
NUMBER_OF_BYTES                          : 47749
_STATISTICS_WRITING_APP                  : mkvmerge v13.0.0 ('The Juggler') 64bit
_STATISTICS_WRITING_DATE_UTC             : 2018-01-13 22:15:34
_STATISTICS_TAGS                         : BPS DURATION NUMBER_OF_FRAMES NUMBER_OF_BYTES

Video
ID                                       : 1
Format                                   : AVC
Format/Info                              : Advanced Video Codec
Format profile                           : High@L4.1
Format settings, CABAC                   : Yes
Format settings, ReFrames                : 5 frames
Codec ID                                 : V_MPEG4/ISO/AVC
Duration                                 : 1h 45mn
Bit rate                                 : 3 590 Kbps
Width                                    : 1 920 pixels
Height                                   : 802 pixels
Display aspect ratio                     : 2.40:1
Frame rate mode                          : Constant
Frame rate                               : 24.000 fps
Color space                              : YUV
Chroma subsampling                       : 4:2:0
Bit depth                                : 8 bits
Scan type                                : Progressive
Bits/(Pixel*Frame)                       : 0.097
Stream size                              : 2.64 GiB (89%)
Writing library                          : x264 core 152 r2851 ba24899
Encoding settings                        : cabac=1 / ref=5 / deblock=1:-3:-3 / analyse=0x3:0x113 / me=umh / subme=8 / psy=1 / psy_rd=1.00:0.15 / mixed_ref=1 / me_range=16 / chroma_me=1 / trellis=2 / 8x8dct=1 / cqm=0 / deadzone=21,11 / fast_pskip=0 / chroma_qp_offset=-2 / threads=128 / lookahead_threads=6 / sliced_threads=0 / nr=0 / decimate=1 / interlaced=0 / bluray_compat=0 / constrained_intra=0 / bframes=3 / b_pyramid=2 / b_adapt=1 / b_bias=0 / direct=3 / weightb=1 / open_gop=0 / weightp=2 / keyint=240 / keyint_min=24 / scenecut=40 / intra_refresh=0 / rc_lookahead=50 / rc=crf / mbtree=1 / crf=19.0 / qcomp=0.60 / qpmin=0 / qpmax=69 / qpstep=4 / ip_ratio=1.40 / aq=3:0.80
Language                                 : English
Default                                  : Yes
Forced                                   : No
DURATION                                 : 01:45:08.250000000
NUMBER_OF_FRAMES                         : 151398
NUMBER_OF_BYTES                          : 2893034155
_STATISTICS_WRITING_APP                  : mkvmerge v13.0.0 ('The Juggler') 64bit
_STATISTICS_WRITING_DATE_UTC             : 2018-01-13 22:15:34
_STATISTICS_TAGS                         : BPS DURATION NUMBER_OF_FRAMES NUMBER_OF_BYTES

Audio
ID                                       : 2
Format                                   : AC-3
Format/Info                              : Audio Coding 3
Mode extension                           : CM (complete main)
Format settings, Endianness              : Big
Codec ID                                 : A_AC3
Duration                                 : 1h 45mn
Bit rate mode                            : Constant
Bit rate                                 : 384 Kbps
Channel(s)                               : 6 channels
Channel positions                        : Front: L C R, Side: L R, LFE
Sampling rate                            : 48.0 KHz
Bit depth                                : 16 bits
Compression mode                         : Lossy
Stream size                              : 289 MiB (9%)
Language                                 : German
Default                                  : Yes
Forced                                   : No

Text #1
ID                                       : 3
Format                                   : UTF-8
Codec ID                                 : S_TEXT/UTF8
Codec ID/Info                            : UTF-8 Plain Text
Title                                    : Forced
Language                                 : German
Default                                  : Yes
Forced                                   : Yes

Text #2
ID                                       : 4
Format                                   : UTF-8
Codec ID                                 : S_TEXT/UTF8
Codec ID/Info                            : UTF-8 Plain Text
Title                                    : German
Language                                 : German
Default                                  : No
Forced                                   : No

Text #3
ID                                       : 5
Format                                   : UTF-8
Codec ID                                 : S_TEXT/UTF8
Codec ID/Info                            : UTF-8 Plain Text
Title                                    : English
Language                                 : English
Default                                  : No
Forced                                   : No


Download:
Share Online Share OnlineShare OnlineShare Online
 

Kommentare