Filmwünsche können bei uns im Forum abgegeben werden

Wir Speichern Nicht




 
 
 
Top Releases
Logan.The.Wolverine.2017.Ger...
Logan.The.Wolverine.2017.Ger...
Dunkirk.2017.German.DL.2160p...
Cars.3.2017.multi.complete.B...
Mother.2017.German.AC3.DL.10...
Kingsman.The.Golden.Circle.2...
Logan.Lucky.2017.German.DL.1...
Spiderman.3.2007.German.DL.1...
Das.Bourne.Vermaechtnis.2012...
Iron.Man.2.2010.German.DL.21...

Cinedubs
Jigsaw.2017.German.AC3D.DL.7...
Jigsaw.2017.German.AC3D.DL.1...
Geostorm.2017.German.AC3MD.D...
Geostorm.2017.German.AC3MD.D...
The.LEGO.Ninjago.Movie.Germa...
The.LEGO.Ninjago.Movie.Germa...
Jigsaw.German.MD.DL.1080p.WE...
Jigsaw.German.MD.DL.720p.WEB...
Star.Wars.Episode.VIII.Die.l...
Bad.Moms.2.German.MD.DL.1080...

Neuerscheinungen 2017-18
Tigermilch.2017.GERMAN.720p....
Ich.einfach.unverbesserlich....
The.Prestige.2006.COMPLETE.U...
Men.in.Black.1997.COMPLETE.U...
The.Dark.Knight.2008.COMPLET...
November.Criminals.2017.Germ...
November.Criminals.2017.Germ...
November.Criminals.2017.Germ...
Beyond.Skyline.2017.German.A...
Der.Polkakoenig.2017.German....

XXX
BigTitsRoundAsses.18.01.11.V...
BigNaturals.18.01.10.Ella.Kn...
Bang.Europe.63.XXX.1080p.WEB...
21Naturals.18.01.10.Lexi.Lay...
WankItNow.18.01.11.Tammie.Le...
VivThomas.18.01.10.Cristal.C...
AllOver30.18.01.11.Mulatka.X...
Nubiles.18.01.10.Darcy.Rosa....
Nubiles.18.01.09.Sicilia.Yog...
VickyAtHome.16.10.28.6.Girl....
BangBros18.18.01.09.Tiffany....
WcpClub.17.06.16.Selena.Sant...
BigGulpGirls.18.01.09.Aspen....
WankItNow.18.01.10.Natalia.F...
VickyAtHome.16.11.04.Rubberd...
WcpClub.17.06.09.Angela.Whit...
AutoescuelaCumlouder.18.01.1...
Boobs.Exposed.6.XXX.1080p.WE...
1By-Day.18.01.10.Ellen.Betsy...
VickyAtHome.16.12.23.Reagan....

3D
Ares.2016.3D.HOU.German.1080...
Guardians.Of.The.Galaxy.Vol....
Ares.3D.2016.German.720p.Blu...
Ares.3D.2016.German.1080p.Bl...
El.Americano.Kleiner.Superhe...
Best.of.3D.vol.01.-.03.GERMA...
Pete.Smalls.is.Dead.3D.2010....
Baymax.Riesiges.Robowabohu.2...
Bigfoot.Junior.3D.2017.GERMA...
Bigfoot.Junior.3D.2017.Germa...
Bigfoot.Junior.3D.2017.Germa...
El.Americano.Kleiner.Superhe...
El.Americano.Kleiner.Superhe...
Walhalla.Rising.3D.2009.Germ...
Spider.Man.Homecoming.3D.Ger...

Old_Stuff
American.Sniper.2014.MULTi.C...
Hana-bi.Feuerblume.1997.Germ...
Memphis.Belle.1990.German.DL...
Im.Schatten.des.Mondes.Germa...
Tomb.Raider.2001.DUAL.COMPLE...
Tomb.Raider.Die.Wiege.des.Le...
Party.Animals.3.German.AC3.7...
The.Rocky.Horror.Picture.Sho...
Die.Fliege.1986.German.DTS.1...
Mimic.2.2001.German.DD5.1D.D...
The.Tournament.UNCUT.2009.Ge...
Dr.House.S08.German.720p.Blu...
Dr.House.S07.German.720p.Blu...
Dr.House.S06.German.720p.Blu...
Dr.House.S05.German.720p.Blu...

Filme
Star.Wars.The.Complete.Saga....
Young.Sheldon.S01.GERMAN.DUB...
Young.Sheldon.S01.GERMAN.DUB...
Day.of.the.Animals.1977.Germ...
Day.of.the.Animals.1977.Germ...
Men.in.Black.II.2002.COMPLET...
Die.Eisprinzen.2007.German.1...
100.000.Dollar.in.der.Sonne....
The.Crypt.Gruft.Des.Grauens....
Verlockende.Falle.-.Entrapme...
Austenland.German.DL.1080p.B...
Star.Trek.Discovery.S01.Germ...
Austenland.German.720p.BluRa...
Boomerang.Uncut.1992.German....
Splash.-.Eine.Jungfrau.am.Ha...
Highway.to.Hellas.2015.Germa...
Harry.Potter.und.der.Gefange...
GoodFellas.Drei.Jahrzehnte.i...
Der.Manchurian.Kandidat.2004...
Die.Bruecke.1959.German.REMA...
Die.Bruecke.1959.German.REMA...
Supernatural.S12.GERMAN.DUBB...
Supernatural.S12.GERMAN.DUBB...
The.Big.Bang.Theory.S11.Germ...

 
 
Der.Sturm.2000.German.DL.1080p.BluRay.VC1-SCiENTOLOGY
Jahr: 2000
Genre: Action | Abenteuer | Drama
Sprache: Deutsch AC3 | Englisch TrueHD
Laufzeit: 2h 9mn
Bitrate: 20.1 Mbps
Format: MKV
Größe: 18.2 GiB
Release:

Beschreibung:

Die Gefahr vom Sturm und Wellen auf hoher See ist Ihr Alltag, für einen erfolgreichen Fischzug geben Sie alles – die Schwertfischer von Gloucester riskieren täglich ihr Leben und sind stolz darauf! Aber als Captain Tyne und seine Crew dieses Mal auslaufen, um den letzten und besten Fang der Saison einzuholen, ahnen sie nicht, welcher Macht sie sich stellen müssen….



Complete name                            : scientology-der.sturm.mkv
Format                                   : Matroska
Format version                           : Version 4 / Version 2
File size                                : 18.2 GiB
Duration                                 : 2h 9mn
Overall bit rate mode                    : Variable
Overall bit rate                         : 20.1 Mbps
Encoded date                             : UTC 2018-01-13 14:46:00
Writing application                      : mkvmerge v19.0.0 ('Brave Captain') 64-bit
Writing library                          : libebml v1.3.5 + libmatroska v1.4.8
DURATION                                 : 02:09:49.216000000
NUMBER_OF_FRAMES                         : 243413
NUMBER_OF_BYTES                          : 623137280
_STATISTICS_WRITING_APP                  : mkvmerge v19.0.0 ('Brave Captain') 64-bit
_STATISTICS_WRITING_DATE_UTC             : 2018-01-13 14:46:00
_STATISTICS_TAGS                         : BPS DURATION NUMBER_OF_FRAMES NUMBER_OF_BYTES

Video
ID                                       : 1
Format                                   : VC-1
Format profile                           : Advanced@L3
Codec ID                                 : V_MS/VFW/FOURCC / WVC1
Codec ID/Hint                            : Microsoft
Duration                                 : 2h 9mn
Width                                    : 1 920 pixels
Height                                   : 1 080 pixels
Display aspect ratio                     : 16:9
Frame rate mode                          : Constant
Frame rate                               : 23.976 fps
Color space                              : YUV
Chroma subsampling                       : 4:2:0
Bit depth                                : 8 bits
Scan type                                : Progressive
Compression mode                         : Lossy
Default                                  : Yes
Forced                                   : No

Audio #1
ID                                       : 2
Format                                   : AC-3
Format/Info                              : Audio Coding 3
Mode extension                           : CM (complete main)
Format settings, Endianness              : Big
Codec ID                                 : A_AC3
Duration                                 : 2h 9mn
Bit rate mode                            : Constant
Bit rate                                 : 640 Kbps
Channel(s)                               : 6 channels
Channel positions                        : Front: L C R, Side: L R, LFE
Sampling rate                            : 48.0 KHz
Bit depth                                : 16 bits
Compression mode                         : Lossy
Stream size                              : 594 MiB (3%)
Language                                 : German
Default                                  : Yes
Forced                                   : No

Audio #2
ID                                       : 3
Format                                   : TrueHD
Codec ID                                 : A_TRUEHD
Duration                                 : 2h 9mn
Bit rate mode                            : Variable
Maximum bit rate                         : 3 168 Kbps
Channel(s)                               : 6 channels
Channel positions                        : Front: L C R, Side: L R, LFE
Sampling rate                            : 48.0 KHz
Compression mode                         : Lossless
Language                                 : English
Default                                  : No
Forced                                   : No

Audio #3
ID                                       : 4
Format                                   : AC-3
Format/Info                              : Audio Coding 3
Mode extension                           : CM (complete main)
Format settings, Endianness              : Big
Codec ID                                 : A_AC3
Duration                                 : 2h 9mn
Bit rate mode                            : Constant
Bit rate                                 : 640 Kbps
Channel(s)                               : 6 channels
Channel positions                        : Front: L C R, Side: L R, LFE
Sampling rate                            : 48.0 KHz
Bit depth                                : 16 bits
Compression mode                         : Lossy
Stream size                              : 594 MiB (3%)
Language                                 : English
Default                                  : No
Forced                                   : No


Download:
Share Online Share OnlineShare OnlineShare Online
 

Kommentare